<?xml version="1.0" standalone="no"?>
<!DOCTYPE svg PUBLIC "-//W3C//DTD SVG 1.1//EN" "http://www.w3.org/Graphics/SVG/1.1/DTD/svg11.dtd" >
<svg xmlns="http://www.w3.org/2000/svg" xmlns:xlink="http://www.w3.org/1999/xlink" version="1.1">
<metadata>
Created by FontForge 20160405 at Mon Aug 13 23:15:36 2018
 By www-data
Copyright 1990-1993 Bitstream Inc.  All rights reserved.
</metadata>
<defs>
<font id="Geometric706BT-MediumB" horiz-adv-x="1024" >
  <font-face 
    font-family="Geometr706 Md BT"
    font-weight="400"
    font-stretch="normal"
    units-per-em="2048"
    panose-1="2 11 5 2 2 2 3 2 2 4"
    ascent="1638"
    descent="-410"
    x-height="1075"
    cap-height="1565"
    bbox="-342 -483 2472 2136"
    underline-thickness="129"
    underline-position="-415"
    unicode-range="U+0020-F002"
  />
<missing-glyph horiz-adv-x="1229" 
d="M102 -362v1806h1024v-1806h-1024zM217 -248h795v1577h-795v-1577z" />
    <glyph glyph-name=".notdef" horiz-adv-x="1229" 
d="M102 -362v1806h1024v-1806h-1024zM217 -248h795v1577h-795v-1577z" />
    <glyph glyph-name=".null" horiz-adv-x="0" 
 />
    <glyph glyph-name="nonmarkingreturn" horiz-adv-x="569" 
 />
    <glyph glyph-name="space" unicode=" " horiz-adv-x="569" 
 />
    <glyph glyph-name="exclam" unicode="!" horiz-adv-x="569" 
d="M184 360v1194h199v-1194h-199zM154 104q0 54 38.5 91.5t92.5 37.5q55 0 93 -37t38 -92q0 -53 -39 -92t-92 -39t-92 39.5t-39 91.5z" />
    <glyph glyph-name="quotedbl" unicode="&#x22;" horiz-adv-x="643" 
d="M395 1436h164v-557h-164v557zM86 1436h164v-557h-164v557z" />
    <glyph glyph-name="numbersign" unicode="#" horiz-adv-x="1575" 
d="M709 852l-91 -254h256l91 254h-256zM735 1460h191l-154 -436h250l156 436h190l-154 -436h291l-59 -172h-293l-90 -252h309l-61 -172h-307l-156 -434h-191l156 434h-252l-158 -434h-190l156 434h-299l61 172h297l90 252h-315l61 172h316z" />
    <glyph glyph-name="dollar" unicode="$" horiz-adv-x="1139" 
d="M618 651v-481q99 9 159.5 71.5t60.5 153.5q0 92 -54.5 155.5t-165.5 100.5zM299 444q2 -113 56.5 -181.5t158.5 -88.5v512q-198 64 -287.5 166t-89.5 262q0 170 100 274t277 117v154h104v-156q172 -20 271 -133.5t108 -299.5l-180 -1q-14 121 -63.5 189.5t-135.5 84.5
v-499q207 -68 304.5 -174t97.5 -264q0 -164 -108 -272.5t-294 -131.5v-186h-104v186q-174 20 -277 133t-118 301zM514 881v467q-94 -13 -149.5 -77t-55.5 -159q0 -87 48.5 -142t156.5 -89z" />
    <glyph glyph-name="percent" unicode="%" horiz-adv-x="1792" 
d="M1253 389v-67q0 -101 34.5 -150t105.5 -49q70 0 103.5 48t33.5 151v67q0 101 -34 150t-103 49q-70 0 -105 -50t-35 -149zM1184 1528h153l-725 -1546h-153zM268 1184v-70q0 -101 34 -150t104 -49q71 0 105 49t34 150v70q0 100 -34.5 149t-104.5 49t-104 -49t-34 -149z
M1085 449q0 127 86.5 205.5t227.5 78.5q140 0 220.5 -77.5t80.5 -213.5v-176q0 -128 -84.5 -206t-222.5 -78q-137 0 -222.5 79t-85.5 205v183zM100 1241q0 129 86 208t226 79t220.5 -78.5t80.5 -214.5v-176q0 -128 -85 -206.5t-222 -78.5t-221.5 79t-84.5 206v182z" />
    <glyph glyph-name="ampersand" unicode="&#x26;" horiz-adv-x="1403" 
d="M647 1026q77 41 115.5 94.5t38.5 118.5q0 58 -35 94.5t-90 36.5q-57 0 -91 -37t-34 -98q0 -42 24 -94.5t72 -114.5zM874 389l-282 402q-190 -111 -266 -198t-76 -190q0 -92 67.5 -162.5t159.5 -70.5q77 0 174 53.5t223 165.5zM971 238q-138 -136 -255 -197t-237 -61
q-182 0 -302 123t-120 311q0 155 101 276.5t336 245.5q-63 81 -95 153t-32 132q0 134 86 219.5t219 85.5q134 0 220.5 -84.5t86.5 -214.5q0 -94 -56.5 -179t-166.5 -159l250 -373l233 213l123 -137l-258 -221l274 -371h-243z" />
    <glyph glyph-name="quotesingle" unicode="'" horiz-adv-x="334" 
d="M86 1436h164v-557h-164v557z" />
    <glyph glyph-name="parenleft" unicode="(" horiz-adv-x="815" 
d="M698 -348l-143 -107q-189 232 -279 482t-90 542q0 293 90.5 544t278.5 482l143 -106q-161 -208 -239 -433.5t-78 -486.5q0 -260 77.5 -484.5t239.5 -432.5z" />
    <glyph glyph-name="parenright" unicode=")" horiz-adv-x="815" 
d="M117 -348q162 208 239.5 432.5t77.5 484.5q0 261 -77.5 486.5t-239.5 433.5l143 106q188 -231 278.5 -482t90.5 -544q0 -292 -90 -542t-279 -482z" />
    <glyph glyph-name="asterisk" unicode="*" 
d="M512 1085l-166 -321l-168 125l254 256l-354 59l65 197l320 -164l-47 358h192l-47 -358l320 164l65 -197l-354 -59l254 -256l-168 -125z" />
    <glyph glyph-name="plus" unicode="+" horiz-adv-x="1706" 
d="M768 1221h170v-527h514v-166h-514v-528h-170v528h-514v166h514v527z" />
    <glyph glyph-name="comma" unicode="," horiz-adv-x="569" 
d="M242 264l186 -88l-256 -520l-125 61z" />
    <glyph glyph-name="hyphen" unicode="-" horiz-adv-x="653" 
d="M80 453v170h493v-170h-493z" />
    <glyph glyph-name="period" unicode="." horiz-adv-x="569" 
d="M154 104q0 54 38.5 91.5t92.5 37.5q55 0 93 -37t38 -92q0 -53 -39 -92t-92 -39t-92 39.5t-39 91.5z" />
    <glyph glyph-name="slash" unicode="/" horiz-adv-x="569" 
d="M451 1595h151l-485 -1785h-150z" />
    <glyph glyph-name="zero" unicode="0" horiz-adv-x="1139" 
d="M829 520v467q0 189 -64.5 282t-195.5 93t-196.5 -93.5t-65.5 -281.5v-467q0 -187 65 -280t197 -93t196 92.5t64 280.5zM1020 457q0 -212 -125.5 -343.5t-325.5 -131.5q-199 0 -324.5 131.5t-125.5 343.5v596q0 212 125.5 343.5t324.5 131.5q214 0 332.5 -127.5
t118.5 -358.5v-585z" />
    <glyph glyph-name="one" unicode="1" horiz-adv-x="1139" 
d="M528 0v1231l-286 -162v191l477 268v-1528h-191z" />
    <glyph glyph-name="two" unicode="2" horiz-adv-x="1139" 
d="M106 0l619 922q49 73 71.5 128.5t22.5 100.5q0 93 -62.5 149t-166.5 56q-112 0 -178 -64.5t-66 -175.5v-8h-196q1 191 118.5 304.5t315.5 113.5q194 0 309 -98.5t115 -264.5q0 -82 -29.5 -160.5t-101.5 -183.5l-431 -629h531v-190h-871z" />
    <glyph glyph-name="three" unicode="3" horiz-adv-x="1139" 
d="M252 338q48 -92 120.5 -141.5t159.5 -49.5q138 0 231 92t93 228q0 143 -92 233.5t-238 90.5q-64 0 -128 -24t-128 -71l-34 23l452 618l-522 -10v180h838l-399 -573q195 -4 317 -128.5t122 -320.5q0 -218 -143.5 -360.5t-363.5 -142.5q-151 0 -264.5 66.5t-186.5 197.5z
" />
    <glyph glyph-name="four" unicode="4" horiz-adv-x="1139" 
d="M332 530h381v566zM707 0v365h-619v88l752 1073h39v-989h159v-172h-159v-365h-172z" />
    <glyph glyph-name="five" unicode="5" horiz-adv-x="1139" 
d="M256 348q51 -96 128.5 -148.5t168.5 -52.5q131 0 216 92t85 234q0 136 -88.5 227t-220.5 91q-93 0 -171.5 -33t-142.5 -99l-24 19v829h725v-180h-553v-414q49 22 98.5 32.5t100.5 10.5q206 0 336 -134.5t130 -348.5t-138 -352.5t-351 -138.5q-144 0 -257 67t-189 199z
" />
    <glyph glyph-name="six" unicode="6" horiz-adv-x="1139" 
d="M500 895q35 6 64.5 9t53.5 3q187 0 312 -128t125 -320q0 -92 -29 -171.5t-86 -144.5q-66 -77 -159.5 -119t-196.5 -42q-208 0 -335.5 124.5t-127.5 325.5q0 93 31 185.5t100 201.5l438 688h221zM584 147q123 0 201.5 83t78.5 212q0 138 -74.5 217.5t-203.5 79.5
q-121 0 -199 -84t-78 -217t74.5 -212t200.5 -79z" />
    <glyph glyph-name="seven" unicode="7" horiz-adv-x="1139" 
d="M250 0l567 1337h-620v170h884l-630 -1507h-201z" />
    <glyph glyph-name="eight" unicode="8" horiz-adv-x="1139" 
d="M793 1141q0 97 -63.5 161t-160.5 64q-96 0 -160.5 -64t-64.5 -161q0 -101 62.5 -164.5t162.5 -63.5t162 63t62 165zM848 438q0 133 -78 216t-201 83q-122 0 -201 -83.5t-79 -215.5q0 -126 79 -207t201 -81q123 0 201 80.5t78 207.5zM354 834q-96 45 -144 122t-48 185
q0 169 114 277t293 108q180 0 293 -108t113 -277q0 -108 -48 -185t-145 -122q128 -60 191 -161t63 -245q0 -195 -130.5 -320.5t-336.5 -125.5t-337.5 125.5t-131.5 320.5q0 145 63.5 246t190.5 160z" />
    <glyph glyph-name="nine" unicode="9" horiz-adv-x="1139" 
d="M555 1360q-123 0 -202 -83t-79 -212q0 -138 75 -217.5t204 -79.5q120 0 197 84t77 217q0 134 -73 212.5t-199 78.5zM637 614q-48 -8 -73.5 -11t-45.5 -3q-186 0 -310 128.5t-124 320.5q0 92 28 170.5t85 144.5q66 77 159 119.5t197 42.5q207 0 336 -129t129 -338
q0 -84 -32 -174.5t-99 -196.5l-441 -688h-221z" />
    <glyph glyph-name="colon" unicode=":" horiz-adv-x="569" 
d="M154 104q0 54 38.5 91.5t92.5 37.5q55 0 93 -37t38 -92q0 -53 -39 -92t-92 -39t-92 39.5t-39 91.5zM154 973q0 53 38.5 91t92.5 38q55 0 93 -37t38 -92q0 -54 -39 -92.5t-92 -38.5t-92 39.5t-39 91.5z" />
    <glyph glyph-name="semicolon" unicode=";" horiz-adv-x="569" 
d="M233 264l189 -88l-258 -520l-123 61zM150 973q0 54 37.5 91.5t91.5 37.5q55 0 93 -37t38 -92q0 -54 -39 -92.5t-92 -38.5q-52 0 -90.5 39t-38.5 92z" />
    <glyph glyph-name="less" unicode="&#x3c;" horiz-adv-x="1706" 
d="M1442 1176v-185l-934 -381l934 -381v-182l-1178 483v160z" />
    <glyph glyph-name="equal" unicode="=" horiz-adv-x="1706" 
d="M254 487h1198v-165h-1198v165zM254 901h1198v-168h-1198v168z" />
    <glyph glyph-name="greater" unicode="&#x3e;" horiz-adv-x="1706" 
d="M264 1176l1178 -486v-160l-1178 -483v182l934 381l-934 381v185z" />
    <glyph glyph-name="question" unicode="?" horiz-adv-x="1006" 
d="M301 102q0 54 38.5 92.5t92.5 38.5q55 0 93 -37.5t38 -93.5q0 -53 -38.5 -91t-92.5 -38q-52 0 -91.5 38.5t-39.5 90.5zM338 369v71q0 106 8.5 160t28.5 102q44 109 194 232q16 13 25 20q7 6 20 17q136 112 136 217t-62.5 169t-163.5 64q-106 0 -169.5 -66.5t-63.5 -176.5
v-19l-205 1q5 200 123 317.5t315 117.5q192 0 311 -111.5t119 -291.5q0 -101 -41.5 -182t-132.5 -154q-27 -23 -75 -61q-96 -76 -113 -103q-33 -50 -47.5 -101.5t-14.5 -150.5v-10v-4v-57h-192z" />
    <glyph glyph-name="at" unicode="@" horiz-adv-x="2048" 
d="M1174 283q-55 -87 -128 -127.5t-176 -40.5q-152 0 -232.5 86.5t-80.5 249.5q0 233 138 395t333 162q89 0 149 -34.5t99 -107.5l55 107h154l-148 -586q-1 -5 -2 -12q-6 -27 -6 -37q0 -38 26.5 -61t69.5 -23q51 0 107.5 30.5t105.5 84.5q72 76 110 177.5t38 215.5
q0 253 -187 411t-489 158q-138 0 -256 -31t-215 -94q-181 -113 -279 -291t-98 -395q0 -312 209.5 -499t558.5 -187q166 0 323.5 49t291.5 142l67 -99q-149 -113 -318.5 -170t-355.5 -57q-192 0 -351 48t-281 142q-155 118 -231.5 275.5t-76.5 357.5q0 165 52 313.5
t153 272.5q147 179 353.5 272t459.5 93q166 0 315 -45.5t255 -127.5q132 -102 198 -235.5t66 -300.5q0 -162 -65 -302t-185 -237q-69 -55 -150 -83.5t-168 -28.5q-106 0 -157 40.5t-51 125.5v4zM1233 707q-14 84 -61.5 130t-122.5 46q-127 0 -217.5 -128.5t-90.5 -310.5
q0 -98 45.5 -151t128.5 -53q90 0 163.5 66.5t99.5 172.5z" />
    <glyph glyph-name="A" unicode="A" horiz-adv-x="1489" 
d="M440 547h590l-246 629q-6 14 -18.5 53.5t-28.5 91.5q-15 -51 -28 -90.5t-19 -54.5zM12 0l639 1567h170l660 -1567h-238l-139 362h-735l-140 -362h-217z" />
    <glyph glyph-name="B" unicode="B" horiz-adv-x="1270" 
d="M180 0v1565h266q154 0 243.5 -15.5t148.5 -50.5q101 -60 153.5 -151.5t52.5 -206.5q0 -95 -48.5 -174t-137.5 -129q146 -48 221.5 -149.5t75.5 -250.5q0 -185 -145.5 -311.5t-362.5 -126.5h-467zM383 891h168q140 0 216.5 65t76.5 183q0 124 -77 187t-230 63h-154v-498z
M383 184h207q175 0 265.5 67t90.5 198q0 129 -88 195.5t-260 66.5h-215v-527z" />
    <glyph glyph-name="C" unicode="C" horiz-adv-x="1536" 
d="M1317 1247q-86 83 -190 123.5t-228 40.5q-126 0 -231.5 -41.5t-188.5 -124.5q-89 -90 -134.5 -207t-45.5 -256q0 -138 45.5 -255t134.5 -208q80 -81 186.5 -123t233.5 -42q134 0 242 44t186 132l135 -146q-112 -108 -252.5 -161.5t-310.5 -53.5q-171 0 -314.5 54.5
t-252.5 160.5q-119 116 -180.5 268t-61.5 330t61.5 330.5t180.5 267.5q110 108 252 161.5t315 53.5q166 0 303.5 -50t245.5 -150z" />
    <glyph glyph-name="D" unicode="D" horiz-adv-x="1507" 
d="M385 1380v-1196h150q328 0 494.5 151t166.5 447q0 297 -166.5 447.5t-494.5 150.5h-150zM504 1565q440 0 669.5 -199.5t229.5 -583.5q0 -383 -229.5 -582.5t-669.5 -199.5h-324v1565h324z" />
    <glyph glyph-name="E" unicode="E" horiz-adv-x="1165" 
d="M180 0v1565h813v-185h-610v-489h610v-180h-610v-527h610v-184h-813z" />
    <glyph glyph-name="F" unicode="F" horiz-adv-x="1128" 
d="M180 0v1565h813v-185h-610v-489h610v-180h-610v-711h-203z" />
    <glyph glyph-name="G" unicode="G" horiz-adv-x="1792" 
d="M1315 1241q-79 83 -187 126.5t-235 43.5q-125 0 -229 -41.5t-185 -124.5q-89 -92 -134.5 -209t-45.5 -254q0 -138 45.5 -255t134.5 -208q81 -82 185 -123.5t229 -41.5q243 0 403 142t197 390h-559v186h772v-45q0 -139 -26.5 -256t-80.5 -209q-110 -193 -287.5 -293
t-412.5 -100q-171 0 -314.5 54.5t-252.5 160.5q-119 116 -180.5 268t-61.5 330t61.5 330.5t180.5 267.5q110 108 252 161.5t315 53.5q169 0 311.5 -53.5t249.5 -157.5z" />
    <glyph glyph-name="H" unicode="H" horiz-adv-x="1587" 
d="M180 0v1565h203v-666h821v666h203v-1565h-203v715h-821v-715h-203z" />
    <glyph glyph-name="I" unicode="I" horiz-adv-x="569" 
d="M180 0v1565h203v-1565h-203z" />
    <glyph glyph-name="J" unicode="J" horiz-adv-x="977" 
d="M78 162h41q131 0 220 22.5t153 71.5q56 44 79 113t23 237v774h-494v185h697v-1039q0 -281 -162.5 -420t-491.5 -139q-11 0 -32.5 1t-32.5 1v193z" />
    <glyph glyph-name="K" unicode="K" horiz-adv-x="1341" 
d="M180 0v1565h205v-629q0 -29 -3 -88q-1 -11 -1 -17q18 22 33.5 40.5t27.5 33.5l574 660h264l-657 -729q-11 -13 -45 -44l-12 -11q18 -11 40 -36q7 -8 10 -12l680 -733h-284l-570 629q-2 2 -22 27.5t-39 48.5q0 -4 1 -13q3 -64 3 -94v-598h-205z" />
    <glyph glyph-name="L" unicode="L" horiz-adv-x="985" 
d="M180 0v1565h203v-1375h539v-190h-742z" />
    <glyph glyph-name="M" unicode="M" horiz-adv-x="2034" 
d="M180 0v1565h201l596 -1116q15 -28 24.5 -59.5t14.5 -69.5q3 35 12 67t25 62l594 1116h206v-1565h-204l14 1063q0 32 6.5 87.5t20.5 133.5q-19 -57 -40.5 -108.5t-45.5 -98.5l-586 -1095l-602 1124q-30 57 -46 94t-26 70q14 -48 21.5 -92.5t7.5 -85.5l10 -1092h-203z" />
    <glyph glyph-name="N" unicode="N" horiz-adv-x="1583" 
d="M180 0v1565h191l759 -1082q32 -44 60 -96t53 -113q-19 71 -29 134t-10 114v1043h199v-1565h-166l-793 1130q-44 63 -64.5 102.5t-33.5 80.5q17 -81 25 -150.5t8 -130.5v-1032h-199z" />
    <glyph glyph-name="O" unicode="O" horiz-adv-x="1825" 
d="M897 154q129 0 235 41.5t187 123.5q88 89 134 207t46 256q0 137 -46 254.5t-136 208.5q-82 83 -188 124.5t-232 41.5q-125 0 -231.5 -42t-186.5 -124q-88 -88 -134 -206t-46 -257q0 -138 46 -256t134 -207q82 -82 186.5 -123.5t231.5 -41.5zM899 -31q-172 0 -313.5 54
t-253.5 163q-119 116 -180.5 267.5t-61.5 328.5t62.5 329.5t181.5 268.5q110 107 252 161t313 54t313 -54t252 -161q120 -116 182 -268.5t62 -329.5t-61.5 -328.5t-180.5 -267.5q-112 -109 -253 -163t-314 -54z" />
    <glyph glyph-name="P" unicode="P" horiz-adv-x="1147" 
d="M383 725h162q164 0 256 87.5t92 244.5q0 158 -97.5 240.5t-283.5 82.5h-129v-655zM180 0v1565h334q270 0 429 -140.5t159 -375.5q0 -225 -153 -367.5t-396 -142.5h-170v-539h-203z" />
    <glyph glyph-name="Q" unicode="Q" horiz-adv-x="1825" 
d="M1389 129q-85 -80 -207 -120t-283 -40q-173 0 -315.5 54t-249.5 159q-119 116 -181.5 269.5t-62.5 330.5t62.5 329.5t181.5 268.5q110 107 252 161t313 54t313 -54t252 -161q120 -116 182 -268.5t62 -329.5q0 -164 -48 -297t-144 -237l170 -166l-125 -131zM1255 262
l-174 168l129 133l170 -178q59 100 88 199.5t29 197.5q0 139 -45.5 256t-134.5 207q-80 82 -186.5 124t-233.5 42q-125 0 -231.5 -42t-186.5 -124q-89 -90 -134.5 -207t-45.5 -256q0 -137 46 -254.5t134 -208.5q83 -82 187.5 -123.5t230.5 -41.5q96 0 185.5 27t172.5 81z
" />
    <glyph glyph-name="R" unicode="R" horiz-adv-x="1262" 
d="M383 762h147q189 0 289.5 83t100.5 238q0 146 -102 221.5t-298 75.5h-137v-618zM180 0v1565h357q282 0 436.5 -125t154.5 -350q0 -211 -131.5 -346.5t-339.5 -135.5h-12l551 -608h-256l-557 637v-637h-203z" />
    <glyph glyph-name="S" unicode="S" horiz-adv-x="1262" 
d="M303 448q2 -139 86 -217.5t232 -78.5q135 0 217 67t82 176q0 107 -63.5 171.5t-264.5 131.5q-16 6 -48 16q-199 67 -292 144q-66 54 -99.5 133t-33.5 180q0 194 128.5 309t344.5 115q229 0 364 -124.5t146 -346.5h-205q-18 150 -94 225.5t-209 75.5q-125 0 -202 -69.5
t-77 -184.5q0 -58 21 -104.5t61 -75.5q59 -43 200 -88q41 -13 62 -20q264 -90 365.5 -197t101.5 -280q0 -189 -144 -313t-366 -124q-225 0 -363 125.5t-157 345.5z" />
    <glyph glyph-name="T" unicode="T" horiz-adv-x="1038" 
d="M418 0v1380h-400v185h1002v-185h-399v-1380h-203z" />
    <glyph glyph-name="U" unicode="U" horiz-adv-x="1532" 
d="M371 1565v-965q0 -213 103 -328.5t292 -115.5q190 0 291.5 114.5t101.5 329.5v965h205v-977q0 -281 -164 -450t-434 -169q-271 0 -435.5 168.5t-164.5 450.5v977h205z" />
    <glyph glyph-name="V" unicode="V" horiz-adv-x="1309" 
d="M739 0h-172l-577 1565h215l377 -1072q2 -7 7 -21q54 -156 70 -241q21 105 75 259l1 3l375 1072h209z" />
    <glyph glyph-name="W" unicode="W" horiz-adv-x="1991" 
d="M463 0l-481 1565h215l303 -1076q12 -42 22 -89t19 -105q8 51 17.5 93t20.5 78l322 1099h191l313 -1078q1 -4 4 -15q25 -90 47 -177q9 53 34 143q9 32 13 47l299 1080h207l-467 -1565h-172l-338 1141q-17 60 -26 100.5t-13 73.5q-12 -73 -44 -174l-1 -2l-334 -1139h-151z
" />
    <glyph glyph-name="X" unicode="X" horiz-adv-x="1352" 
d="M12 0l547 797l-518 768h227l346 -508q24 -36 38.5 -62t23.5 -49q10 26 24.5 53.5t34.5 57.5l348 508h228l-518 -766l544 -799h-229l-373 549q-21 30 -35.5 57t-23.5 53q-9 -24 -23 -49.5t-39 -60.5l-370 -549h-232z" />
    <glyph glyph-name="Y" unicode="Y" horiz-adv-x="1255" 
d="M530 0v633l-532 932h238l364 -676q14 -28 20.5 -43.5t12.5 -31.5q4 15 10.5 30.5t21.5 43.5l363 677h229l-522 -934v-631h-205z" />
    <glyph glyph-name="Z" unicode="Z" horiz-adv-x="1270" 
d="M10 0l781 1249q31 52 54 81t48 50h-801v185h1129l-770 -1225q-39 -60 -64.5 -94t-52.5 -62h844v-184h-1168z" />
    <glyph glyph-name="bracketleft" unicode="[" horiz-adv-x="631" 
d="M180 1565h416v-160h-217v-1690h217v-161h-416v2011z" />
    <glyph glyph-name="backslash" unicode="\" horiz-adv-x="569" 
d="M119 1595l483 -1785h-151l-484 1785h152z" />
    <glyph glyph-name="bracketright" unicode="]" horiz-adv-x="631" 
d="M451 1565v-2011h-416v161h217v1690h-217v160h416z" />
    <glyph glyph-name="asciicircum" unicode="^" horiz-adv-x="2048" 
d="M915 1460h218l495 -561h-207l-397 397l-399 -397h-207z" />
    <glyph glyph-name="underscore" unicode="_" 
d="M0 -311h1024v-172h-1024v172z" />
    <glyph glyph-name="grave" unicode="`" 
d="M655 1210h-120l-285 351h201z" />
    <glyph glyph-name="a" unicode="a" horiz-adv-x="1360" 
d="M649 150q163 0 268 109t105 280q0 170 -105 279.5t-268 109.5t-268 -109t-105 -280q0 -172 105 -280.5t268 -108.5zM1202 0h-190v176q-68 -95 -165.5 -142.5t-223.5 -47.5q-112 0 -213.5 42.5t-180.5 123.5q-75 78 -113 176t-38 213q0 249 149.5 402t395.5 153
q124 0 227 -50.5t176 -146.5v176h176v-1075z" />
    <glyph glyph-name="b" unicode="b" horiz-adv-x="1360" 
d="M711 150q163 0 267.5 108.5t104.5 280.5q0 171 -104.5 280t-267.5 109t-268 -109.5t-105 -279.5q0 -171 105 -280t268 -109zM160 0v1554h174v-655q73 96 175.5 146.5t227.5 50.5q246 0 395.5 -153t149.5 -402q0 -116 -37.5 -214t-111.5 -175q-79 -80 -181.5 -123
t-214.5 -43q-126 0 -224 47.5t-165 142.5v-176h-188z" />
    <glyph glyph-name="c" unicode="c" horiz-adv-x="1098" 
d="M889 825q-49 56 -111.5 82.5t-142.5 26.5q-155 0 -254.5 -111.5t-99.5 -285.5t98.5 -284t255.5 -110q85 0 150.5 30t111.5 89l123 -141q-84 -77 -176.5 -112.5t-208.5 -35.5q-119 0 -220 40t-175 116q-79 80 -119.5 183.5t-40.5 224.5t40.5 225t119.5 184
q75 77 175 116.5t220 39.5q114 0 206.5 -34t168.5 -103z" />
    <glyph glyph-name="d" unicode="d" horiz-adv-x="1380" 
d="M1221 1554v-1554h-174v162q-79 -88 -182 -132t-230 -44q-249 0 -403 153t-154 402q0 115 38.5 213.5t112.5 173.5q82 81 186.5 124.5t219.5 43.5q128 0 227.5 -44t167.5 -130v632h191zM659 930q-167 0 -273.5 -108.5t-106.5 -278.5q0 -171 106.5 -280t273.5 -109
q168 0 274.5 109t106.5 280q0 170 -106.5 278.5t-274.5 108.5z" />
    <glyph glyph-name="e" unicode="e" horiz-adv-x="1280" 
d="M272 627h715q-18 137 -116 222t-238 85q-142 0 -243.5 -86.5t-117.5 -220.5zM272 475q10 -148 116.5 -240t268.5 -92q104 0 194 44t165 130l137 -110q-103 -120 -225.5 -177t-276.5 -57q-127 0 -237 46t-189 131q-69 75 -106 173.5t-37 206.5q0 256 153 414t400 158
q252 0 407.5 -168.5t155.5 -444.5v-14h-926z" />
    <glyph glyph-name="f" unicode="f" horiz-adv-x="633" 
d="M580 1386h-9q-94 0 -126.5 -34t-32.5 -152v-125h168v-160h-168v-915h-195v915h-162v160h162v117q0 196 84 282t278 91z" />
    <glyph glyph-name="g" unicode="g" horiz-adv-x="1360" 
d="M670 150q163 0 267.5 109t104.5 280q0 170 -104.5 279.5t-267.5 109.5q-164 0 -268.5 -109t-104.5 -280q0 -172 104.5 -280.5t268.5 -108.5zM1026 176q-62 -94 -159 -142t-224 -48q-112 0 -214.5 43t-180.5 123q-75 78 -113.5 176t-38.5 213q0 249 150.5 402t396.5 153
q125 0 228 -50.5t176 -146.5v176h174v-921q0 -300 -147.5 -454.5t-434.5 -154.5q-171 0 -301.5 60t-226.5 182l153 111q72 -91 169.5 -138t213.5 -47q187 0 283 102t96 300v61z" />
    <glyph glyph-name="h" unicode="h" horiz-adv-x="1214" 
d="M874 0v604q0 171 -56.5 248.5t-180.5 77.5q-140 0 -209.5 -82.5t-69.5 -251.5v-596h-194v1554h194v-602q65 72 142.5 108t169.5 36q185 0 292 -126t107 -347v-623h-195z" />
    <glyph glyph-name="i" unicode="i" horiz-adv-x="512" 
d="M156 0v1075h194v-1075h-194zM125 1434q0 53 38.5 92t92.5 39q55 0 93 -38t38 -93q0 -54 -38.5 -91.5t-92.5 -37.5q-53 0 -92 38.5t-39 90.5z" />
    <glyph glyph-name="j" unicode="j" horiz-adv-x="530" 
d="M143 1434q0 54 38 92.5t91 38.5q56 0 95 -38t39 -93q0 -54 -39.5 -91.5t-94.5 -37.5q-52 0 -90.5 38t-38.5 91zM174 1075h195v-1108q0 -210 -78 -312t-246 -110l1 174q64 2 96 44t32 126v1186z" />
    <glyph glyph-name="k" unicode="k" horiz-adv-x="1110" 
d="M164 0v1554h188v-933l471 454h230l-545 -491l565 -584h-250l-471 522v-522h-188z" />
    <glyph glyph-name="l" unicode="l" horiz-adv-x="512" 
d="M162 0v1554h188v-1554h-188z" />
    <glyph glyph-name="m" unicode="m" horiz-adv-x="1858" 
d="M350 952q67 74 141.5 109t161.5 35q96 0 171 -43t137 -131q74 88 162.5 131t195.5 43q182 0 287.5 -126.5t105.5 -346.5v-623h-188v604q0 165 -56.5 245.5t-171.5 80.5q-135 0 -200.5 -82t-65.5 -252v-596h-184v604q0 164 -56.5 245t-171.5 81q-135 0 -200.5 -82
t-65.5 -252v-596h-188v1075h186v-123z" />
    <glyph glyph-name="n" unicode="n" horiz-adv-x="1214" 
d="M164 0v1075h188v-123q71 73 149.5 108.5t168.5 35.5q185 0 292 -126t107 -347v-623h-190v604q0 169 -58.5 247.5t-183.5 78.5q-142 0 -213.5 -83.5t-71.5 -250.5v-596h-188z" />
    <glyph glyph-name="o" unicode="o" horiz-adv-x="1266" 
d="M633 141q154 0 253 110.5t99 285.5q0 174 -99 285.5t-253 111.5t-253 -112t-99 -285t99.5 -284.5t252.5 -111.5zM633 1102q117 0 218 -41t179 -121q76 -77 116 -180.5t40 -222.5q0 -120 -40 -222t-118 -180q-79 -79 -180 -120.5t-215 -41.5t-215 41.5t-180 120.5
q-78 78 -118 179.5t-40 222.5q0 120 40 222.5t118 180.5q79 79 180 120.5t215 41.5z" />
    <glyph glyph-name="p" unicode="p" horiz-adv-x="1360" 
d="M711 150q163 0 267.5 108.5t104.5 280.5q0 171 -104.5 280t-267.5 109t-268 -109.5t-105 -279.5q0 -171 105 -280t268 -109zM160 -446v1521h174v-176q73 96 175.5 146.5t227.5 50.5q246 0 395.5 -153t149.5 -402q0 -116 -37.5 -214t-111.5 -175q-79 -80 -181.5 -123
t-214.5 -43q-126 0 -224 47.5t-165 142.5v-622h-188z" />
    <glyph glyph-name="q" unicode="q" horiz-adv-x="1360" 
d="M1202 -446h-190v622q-68 -95 -165.5 -142.5t-223.5 -47.5q-112 0 -213.5 42.5t-180.5 123.5q-75 78 -113 176t-38 213q0 249 149.5 402t395.5 153q124 0 227 -50.5t176 -146.5v176h176v-1521zM649 150q163 0 268 109t105 280q0 170 -105 279.5t-268 109.5t-268 -109
t-105 -280q0 -172 105 -280.5t268 -108.5z" />
    <glyph glyph-name="r" unicode="r" horiz-adv-x="729" 
d="M164 0v1075h180v-145q49 82 118.5 123t162.5 41q26 0 39.5 -1t25.5 -3v-193q-28 6 -51 9t-43 3q-121 0 -182.5 -77t-61.5 -230v-602h-188z" />
    <glyph glyph-name="s" unicode="s" horiz-adv-x="958" 
d="M276 313q7 -91 57 -135.5t146 -44.5q93 0 148 46.5t55 123.5q0 101 -213 160q-32 9 -49 14q-167 49 -242.5 124.5t-75.5 191.5q0 133 103.5 221t261.5 88q172 0 270.5 -88t98.5 -240v-8h-179q-3 85 -50 130.5t-132 45.5q-86 0 -139 -41t-53 -106q0 -59 38.5 -92
t173.5 -70l24 -6q186 -51 241 -97q51 -42 77.5 -99t26.5 -126q0 -147 -105.5 -239.5t-277.5 -92.5q-184 0 -285.5 88.5t-105.5 251.5h186z" />
    <glyph glyph-name="t" unicode="t" horiz-adv-x="645" 
d="M178 223v692h-141v160h141v262h191v-262h182v-160h-182v-669q0 -48 19.5 -70t62.5 -22h100v-181h-107q-144 0 -205 57.5t-61 192.5z" />
    <glyph glyph-name="u" unicode="u" horiz-adv-x="1186" 
d="M332 1075v-596q0 -161 68 -249.5t192 -88.5t192 88t68 250v596h190v-608q0 -231 -119.5 -362.5t-330.5 -131.5t-330 131t-119 363v608h189z" />
    <glyph glyph-name="v" unicode="v" horiz-adv-x="1147" 
d="M498 0l-475 1075h210l295 -743q2 -5 7 -17q26 -64 40 -114q16 50 24.5 76t14.5 42l308 756h202l-471 -1075h-155z" />
    <glyph glyph-name="w" unicode="w" horiz-adv-x="1726" 
d="M432 0l-403 1075h200l236 -680q10 -29 20.5 -69t20.5 -86q9 43 18 78.5t19 64.5l231 692h191l233 -682q12 -38 23 -76.5t20 -76.5q4 30 12.5 63.5t24.5 79.5l238 692h192l-401 -1075h-146l-268 778q-8 23 -14.5 48t-12.5 54q-6 -29 -12.5 -53.5t-13.5 -45.5l-267 -781
h-141z" />
    <glyph glyph-name="x" unicode="x" horiz-adv-x="1128" 
d="M4 0l457 553l-436 522h239l299 -395l293 395h252l-438 -526l458 -549h-247l-312 416l-317 -416h-248z" />
    <glyph glyph-name="y" unicode="y" horiz-adv-x="1139" 
d="M465 0l-449 1075h213l277 -680q7 -15 24.5 -72t42.5 -147q28 85 47.5 143.5t26.5 75.5l281 680h209l-668 -1521h-193z" />
    <glyph glyph-name="z" unicode="z" horiz-adv-x="977" 
d="M903 1075l-557 -913h537v-162h-838l553 915h-492v160h797z" />
    <glyph glyph-name="braceleft" unicode="{" 
d="M874 1477v-179q-8 0 -24 1t-23 1q-109 0 -147.5 -41.5t-38.5 -173.5v-241q0 -155 -44 -220.5t-159 -93.5q114 -27 158.5 -92.5t44.5 -220.5v-240q0 -132 39.5 -174.5t148.5 -42.5q7 0 22 1t23 1v-176h-63q-102 0 -165.5 12t-106.5 37q-57 34 -80 96t-23 203v248
q0 144 -52.5 203t-178.5 59q-7 0 -21.5 -1t-21.5 -1v179q7 0 21.5 -1.5t21.5 -1.5q126 0 178.5 59t52.5 202v247q0 145 23 206.5t80 94.5q44 27 109 38.5t181 11.5h45z" />
    <glyph glyph-name="bar" unicode="|" 
d="M424 1565h178v-2048h-178v2048z" />
    <glyph glyph-name="braceright" unicode="}" 
d="M152 1477h45q115 0 179.5 -11.5t108.5 -38.5q57 -33 80 -95t23 -206v-247q0 -144 52 -202.5t179 -58.5q6 0 21 1.5t22 1.5v-179q-7 0 -21.5 1t-21.5 1q-126 0 -178.5 -59t-52.5 -203v-248q0 -143 -23 -204t-80 -95q-43 -26 -108 -37.5t-180 -11.5h-45v176q8 0 23 -1
t22 -1q109 0 147.5 42t38.5 175v240q0 153 45 219t160 94q-115 28 -160 93.5t-45 220.5v241q0 132 -38 173.5t-146 41.5q-7 0 -23 -1t-24 -1v179z" />
    <glyph glyph-name="asciitilde" unicode="~" horiz-adv-x="1706" 
d="M1530 784v-184q-103 -71 -197.5 -106t-183.5 -35q-44 0 -92.5 8.5t-98.5 26.5q-25 8 -76 26q-212 74 -319 74q-82 0 -174 -38t-211 -122v187q106 72 202 107.5t185 35.5q62 0 125.5 -12t168.5 -48q13 -4 42 -15q164 -58 250 -58q85 0 177 37t202 116z" />
    <glyph glyph-name="nonbreakingspace" unicode="&#xa0;" horiz-adv-x="1139" 
 />
    <glyph glyph-name="exclamdown" unicode="&#xa1;" horiz-adv-x="569" 
d="M383 1194v-1194h-199v1194h199zM416 1452q0 -54 -39 -92.5t-92 -38.5q-56 0 -93.5 38t-37.5 93q0 53 38.5 91t92.5 38q52 0 91.5 -38.5t39.5 -90.5z" />
    <glyph glyph-name="cent" unicode="&#xa2;" horiz-adv-x="1139" 
d="M920 1040q-43 47 -94 73t-117 34v-787q67 7 122.5 37t96.5 82l123 -141q-82 -73 -168 -109t-174 -36v-295h-105v295q-223 22 -358 176.5t-135 384.5q0 231 134 383.5t359 177.5v297h105v-293q100 -8 182.5 -42.5t148.5 -96.5zM604 365v780q-132 -22 -212.5 -129
t-80.5 -262q0 -156 81.5 -263.5t211.5 -125.5z" />
    <glyph glyph-name="sterling" unicode="&#xa3;" horiz-adv-x="1139" 
d="M201 -4l-92 145q115 101 173 197.5t58 189.5q0 35 -8 69t-25 69h-209v133h152q-2 4 -4 9q-111 253 -111 355q0 166 114.5 264.5t309.5 98.5q197 0 314.5 -113t119.5 -305h-196v10q0 110 -65 174t-177 64q-104 0 -166.5 -56t-62.5 -149q0 -37 28.5 -117.5t98.5 -234.5h284
v-133h-233q10 -43 15 -73t5 -52q0 -84 -38.5 -163t-114.5 -151q64 14 103 19.5t69 5.5q69 0 166 -36t139 -36q36 0 72 10.5t75 32.5l70 -162q-61 -39 -118.5 -57t-119.5 -18q-42 0 -81 8t-89 29l-88 36q-29 12 -58.5 18.5t-57.5 6.5q-72 0 -136 -22.5t-116 -65.5z" />
    <glyph glyph-name="currency" unicode="&#xa4;" horiz-adv-x="1241" 
d="M623 1176q-120 0 -205.5 -86t-85.5 -205q0 -120 84.5 -204.5t206.5 -84.5q121 0 205.5 84.5t84.5 204.5q0 119 -85.5 205t-204.5 86zM168 1430l203 -203q55 41 117 61.5t133 20.5t134 -20.5t117 -61.5l203 203l94 -93l-204 -204q39 -54 59 -116.5t20 -131.5
q0 -70 -20 -132.5t-59 -115.5l204 -205l-94 -92l-203 205q-57 -42 -118 -62t-131 -20q-72 0 -135 20.5t-117 61.5l-203 -205l-92 92l203 205q-40 53 -60 115.5t-20 132.5q0 69 20 131.5t60 116.5l-203 204z" />
    <glyph glyph-name="yen" unicode="&#xa5;" horiz-adv-x="1139" 
d="M184 1497l359 -655q7 -13 15 -31t15 -42q4 15 10 30t21 43l359 655h202l-284 -504h288v-102h-344l-120 -211h464v-102h-503v-578h-185v578h-514v102h471l-121 211h-350v102h293l-289 504h213z" />
    <glyph glyph-name="brokenbar" unicode="&#xa6;" 
d="M424 408h178v-758h-178v758zM424 1432h178v-758h-178v758z" />
    <glyph glyph-name="section" unicode="&#xa7;" 
d="M174 72l141 108q53 -62 95.5 -90.5t83.5 -28.5q50 0 80 29.5t30 77.5q0 38 -21 74.5t-100 117.5l-204 211q-101 105 -138 172.5t-37 137.5q0 95 59.5 160t162.5 83q-55 61 -79 113t-24 106q0 111 80 181.5t205 70.5q96 0 177 -41.5t144 -123.5l-141 -103q-50 57 -88.5 82
t-75.5 25q-45 0 -73.5 -29.5t-28.5 -75.5q0 -27 23 -61t106 -117l184 -182q95 -93 137.5 -171t42.5 -155q0 -99 -54.5 -158.5t-164.5 -78.5q55 -57 81 -115.5t26 -126.5q0 -126 -80 -199.5t-215 -73.5q-97 0 -183 46.5t-151 134.5zM295 903q0 -34 28 -77t111 -128
q99 -100 139.5 -126.5t77.5 -26.5q30 0 52 23.5t22 58.5q0 32 -25 71.5t-116 135.5q-84 88 -129 120.5t-80 32.5q-34 0 -57 -24t-23 -60z" />
    <glyph glyph-name="dieresis" unicode="&#xa8;" 
d="M582 1374q0 45 33.5 79t78.5 34q46 0 79.5 -33.5t33.5 -79.5q0 -49 -32 -80.5t-81 -31.5q-48 0 -80 32t-32 80zM217 1374q0 45 34.5 79t80.5 34t78 -33t32 -80q0 -49 -30.5 -80.5t-79.5 -31.5q-50 0 -82.5 31.5t-32.5 80.5z" />
    <glyph glyph-name="copyright" unicode="&#xa9;" horiz-adv-x="1706" 
d="M1206 904l-166 -1q-10 74 -60 114t-130 40q-99 0 -155 -86.5t-56 -239.5q0 -152 57.5 -234.5t163.5 -82.5q80 0 129 43.5t60 124.5h165q-7 -135 -106.5 -217t-253.5 -82q-183 0 -290 119t-107 323q0 208 109.5 331.5t291.5 123.5q147 0 243 -77t105 -199zM854 1362
q-130 0 -243 -46.5t-201 -135.5q-90 -92 -138.5 -208t-48.5 -241q0 -126 48 -240t139 -204q90 -91 204.5 -139t239.5 -48t240 48.5t209 140.5q89 88 135.5 200.5t46.5 241.5t-47 243.5t-135 203.5q-91 90 -205 137t-244 47zM852 1470q152 0 286 -55t240 -162
q105 -105 160 -238.5t55 -283.5q0 -153 -54.5 -286t-158.5 -234q-108 -107 -244.5 -164t-283.5 -57q-146 0 -280 56.5t-240 162.5q-107 106 -163 240.5t-56 281.5q0 145 57 280.5t164 243.5q105 107 235.5 161t282.5 54z" />
    <glyph glyph-name="ordfeminine" unicode="&#xaa;" horiz-adv-x="1020" 
d="M487 915q122 0 200.5 77t78.5 196t-78.5 195.5t-200.5 76.5q-123 0 -201.5 -76t-78.5 -196t78.5 -196.5t201.5 -76.5zM901 811h-141v123q-51 -66 -124.5 -99.5t-168.5 -33.5q-85 0 -161 30t-134 87q-56 54 -84.5 122.5t-28.5 149.5q0 174 112.5 281.5t295.5 107.5
q94 0 171.5 -35.5t131.5 -103.5v125h131v-754z" />
    <glyph glyph-name="guillemotleft" unicode="&#xab;" horiz-adv-x="1053" 
d="M555 936l-227 -397l227 -400h-195l-229 400l229 397h195zM997 936l-227 -397l227 -400h-194l-230 400l230 397h194z" />
    <glyph glyph-name="logicalnot" unicode="&#xac;" horiz-adv-x="1706" 
d="M254 862h1198v-502h-166v336h-1032v166z" />
    <glyph glyph-name="sfthyphen" unicode="&#xad;" horiz-adv-x="653" 
d="M80 453v170h493v-170h-493z" />
    <glyph glyph-name="registered" unicode="&#xae;" horiz-adv-x="1706" 
d="M729 1047v-261h117q100 0 146 30.5t46 96.5q0 69 -48 101.5t-152 32.5h-109zM551 1159h319q173 0 262 -57t89 -168q0 -91 -48 -150.5t-137 -78.5l185 -375h-199l-164 346h-129v-346h-178v829zM854 1362q-129 0 -240 -45.5t-200 -134.5q-92 -94 -141.5 -210t-49.5 -241
t47 -238.5t136 -203.5q90 -91 204 -140t234 -49q130 0 246.5 47t209.5 138q89 86 137 198.5t48 237.5q0 133 -45.5 247.5t-134.5 205.5q-93 92 -207.5 140t-243.5 48zM852 1470q153 0 288.5 -56t241.5 -165q103 -104 157 -236.5t54 -281.5q0 -153 -55.5 -287t-161.5 -237
q-108 -105 -243 -161t-281 -56q-147 0 -282.5 57.5t-241.5 165.5q-105 106 -160 239t-55 279q0 147 57.5 284t165.5 245q104 104 234.5 157t281.5 53z" />
    <glyph glyph-name="macron" unicode="&#xaf;" 
d="M242 1305v139h540v-139h-540z" />
    <glyph glyph-name="degree" unicode="&#xb0;" horiz-adv-x="674" 
d="M338 1350q-77 0 -131.5 -54t-54.5 -131q0 -76 54.5 -131t131.5 -55t130.5 54.5t53.5 131.5t-53.5 131t-130.5 54zM338 1460q121 0 208 -87t87 -210q0 -121 -87 -208t-210 -87t-208 85.5t-85 209.5q0 125 86 211t209 86z" />
    <glyph glyph-name="plusminus" unicode="&#xb1;" horiz-adv-x="1706" 
d="M254 182h1198v-168h-1198v168zM768 1206h170v-334h514v-165h-514v-334h-170v334h-514v165h514v334z" />
    <glyph glyph-name="twosuperior" unicode="&#xb2;" horiz-adv-x="752" 
d="M70 602l409 553q32 45 47 78.5t15 58.5q0 56 -41.5 89.5t-110.5 33.5q-73 0 -116.5 -38.5t-43.5 -104.5v-4h-131q2 114 79.5 182t207.5 68q128 0 204.5 -59.5t76.5 -158.5q0 -49 -20 -96t-68 -110l-283 -377h350v-115h-575z" />
    <glyph glyph-name="threesuperior" unicode="&#xb3;" horiz-adv-x="752" 
d="M166 805q31 -56 79.5 -85.5t106.5 -29.5q91 0 152 55.5t61 137.5q0 85 -60.5 139.5t-156.5 54.5q-42 0 -85 -14.5t-85 -42.5l-22 14l299 371l-346 -6v108h553l-262 -343q128 -4 209 -79t81 -192q0 -131 -95 -216t-241 -85q-100 0 -175 39.5t-122 118.5z" />
    <glyph glyph-name="acute" unicode="&#xb4;" 
d="M369 1210l204 351h201l-285 -351h-120z" />
    <glyph glyph-name="mu" unicode="&#xb5;" horiz-adv-x="1208" 
d="M205 1081h229l-125 -635q-6 -29 -9 -55t-3 -49q0 -96 46.5 -146.5t135.5 -50.5q122 0 193.5 88.5t111.5 292.5l109 555h225l-145 -739q-10 -49 -14.5 -81.5t-4.5 -51.5q0 -36 15.5 -51t52.5 -15q13 0 20.5 0.5t13.5 1.5l-32 -159q-32 -9 -68.5 -13t-81.5 -4
q-74 0 -111.5 31.5t-37.5 93.5v15q-41 -67 -108 -104.5t-146 -37.5q-81 0 -137.5 26t-97.5 83l-99 -506h-229z" />
    <glyph glyph-name="paragraph" unicode="&#xb6;" 
d="M969 1479v-99h-117v-1380h-129v1380h-168v-1380h-131v784q-168 6 -268.5 101t-100.5 245q0 158 107 253.5t284 95.5h523z" />
    <glyph glyph-name="glyph121" unicode="&#xb7;" horiz-adv-x="569" 
d="M154 754q0 53 38.5 92t92.5 39q55 0 93 -38t38 -93q0 -54 -39 -92.5t-92 -38.5t-92 39t-39 92z" />
    <glyph glyph-name="cedilla" unicode="&#xb8;" 
d="M293 -426v100q78 -18 143.5 -28.5t104.5 -10.5q60 0 89 20.5t29 61.5q0 44 -32 65t-101 21q-20 0 -31.5 -0.5t-20.5 -1.5l-1 199h78v-102h29q109 0 166 -46t57 -135q0 -91 -64.5 -139.5t-185.5 -48.5q-51 0 -117 11.5t-143 33.5z" />
    <glyph glyph-name="onesuperior" unicode="&#xb9;" horiz-adv-x="752" 
d="M350 602v739l-190 -98v115l315 162v-918h-125z" />
    <glyph glyph-name="ordmasculine" unicode="&#xba;" horiz-adv-x="950" 
d="M475 909q115 0 189.5 78t74.5 199q0 122 -74 200t-190 78q-115 0 -189.5 -78.5t-74.5 -199.5q0 -120 74.5 -198.5t189.5 -78.5zM475 1583q88 0 163.5 -29t133.5 -86q57 -54 87 -126t30 -156t-30 -155.5t-87 -125.5q-61 -55 -137 -83.5t-160 -28.5q-85 0 -161.5 29
t-135.5 83q-58 56 -88.5 127t-30.5 154q0 85 30.5 157t88.5 125q59 56 135.5 85.5t161.5 29.5z" />
    <glyph glyph-name="guillemotright" unicode="&#xbb;" horiz-adv-x="1053" 
d="M55 139l228 400l-228 397h195l229 -397l-229 -400h-195zM498 139l227 400l-227 397h194l230 -397l-230 -400h-194z" />
    <glyph glyph-name="onequarter" unicode="&#xbc;" horiz-adv-x="1776" 
d="M1268 297h239v317zM1503 0v205h-389v49l473 600h25v-553h100v-96h-100v-205h-109zM1237 1526h162l-860 -1544h-164zM332 664v690l-180 -92v106l301 152v-856h-121z" />
    <glyph glyph-name="onehalf" unicode="&#xbd;" horiz-adv-x="1776" 
d="M1126 0l390 516q30 41 44.5 72t14.5 57q0 51 -40 83t-105 32q-71 0 -112.5 -36.5t-41.5 -98.5v-4h-123q2 107 76 170t198 63q123 0 195 -55t72 -148q0 -46 -19 -91t-63 -101l-273 -353h336v-106h-549zM1237 1526h162l-860 -1544h-164zM332 664v690l-180 -92v106l301 152
v-856h-121z" />
    <glyph glyph-name="threequarters" unicode="&#xbe;" horiz-adv-x="1778" 
d="M1268 297h239v317zM1503 0v205h-389v49l473 600h25v-553h100v-96h-100v-205h-109zM1237 1526h162l-860 -1544h-164zM158 852q32 -52 77.5 -79.5t100.5 -27.5q87 0 145 51.5t58 129.5q0 79 -58 129.5t-149 50.5q-41 0 -81.5 -13.5t-80.5 -39.5l-23 14l287 346l-330 -6v100
h529l-252 -321q123 -2 199.5 -71.5t76.5 -178.5q0 -123 -90.5 -203t-228.5 -80q-94 0 -165.5 37.5t-119.5 110.5z" />
    <glyph glyph-name="questiondown" unicode="&#xbf;" horiz-adv-x="1006" 
d="M705 1464q0 -53 -39 -92t-93 -39q-55 0 -93 38t-38 93q0 54 39 92.5t92 38.5q52 0 91 -39t41 -92zM668 1198q1 -14 1.5 -29.5t0.5 -46.5q0 -142 -36 -241.5t-114 -173.5q-46 -43 -114.5 -97t-83.5 -71q-37 -42 -51.5 -78t-14.5 -82q0 -105 62 -169.5t163 -64.5
q106 0 170 66.5t64 177.5v19l205 -1q-5 -197 -122.5 -315.5t-308.5 -118.5q-203 0 -320.5 111.5t-117.5 304.5q0 67 17.5 123.5t52.5 101.5q43 58 142 129l36 27q105 81 141.5 145t36.5 152q0 9 -1 41.5t-1 56.5v33h193z" />
    <glyph glyph-name="Agrave" unicode="&#xc0;" horiz-adv-x="1489" 
d="M440 547h590l-246 629q-6 14 -18.5 53.5t-28.5 91.5q-15 -51 -28 -90.5t-19 -54.5zM12 0l639 1567h170l660 -1567h-238l-139 362h-735l-140 -362h-217zM888 1706h-120l-285 351h201z" />
    <glyph glyph-name="Aacute" unicode="&#xc1;" horiz-adv-x="1489" 
d="M440 547h590l-246 629q-6 14 -18.5 53.5t-28.5 91.5q-15 -51 -28 -90.5t-19 -54.5zM12 0l639 1567h170l660 -1567h-238l-139 362h-735l-140 -362h-217zM602 1706l204 351h201l-285 -351h-120z" />
    <glyph glyph-name="Acircumflex" unicode="&#xc2;" horiz-adv-x="1489" 
d="M440 547h590l-246 629q-6 14 -18.5 53.5t-28.5 91.5q-15 -51 -28 -90.5t-19 -54.5zM12 0l639 1567h170l660 -1567h-238l-139 362h-735l-140 -362h-217zM450 1706l197 351h196l197 -351h-123l-172 230l-174 -230h-121z" />
    <glyph glyph-name="Atilde" unicode="&#xc3;" horiz-adv-x="1489" 
d="M440 547h590l-246 629q-6 14 -18.5 53.5t-28.5 91.5q-15 -51 -28 -90.5t-19 -54.5zM12 0l639 1567h170l660 -1567h-238l-139 362h-735l-140 -362h-217zM1038 1983q-20 -101 -70.5 -154t-126.5 -53q-14 0 -30 2.5t-35 7.5l-97 29q-10 3 -21 4.5t-28 1.5q-31 0 -53.5 -17.5
t-36.5 -52.5h-88q18 100 68 153.5t125 53.5q17 0 32 -2t27 -6l99 -29q15 -4 28 -6t25 -2q33 0 56.5 17.5t37.5 52.5h88z" />
    <glyph glyph-name="Adieresis" unicode="&#xc4;" horiz-adv-x="1489" 
d="M440 547h590l-246 629q-6 14 -18.5 53.5t-28.5 91.5q-15 -51 -28 -90.5t-19 -54.5zM12 0l639 1567h170l660 -1567h-238l-139 362h-735l-140 -362h-217zM815 1870q0 45 33.5 79t78.5 34q46 0 79.5 -33.5t33.5 -79.5q0 -49 -32 -80.5t-81 -31.5q-48 0 -80 32t-32 80z
M450 1870q0 45 34.5 79t80.5 34t78 -33t32 -80q0 -49 -30.5 -80.5t-79.5 -31.5q-50 0 -82.5 31.5t-32.5 80.5z" />
    <glyph glyph-name="Aring" unicode="&#xc5;" horiz-adv-x="1489" 
d="M602 1884q0 -57 39 -96t96 -39q56 0 95.5 39.5t39.5 95.5q0 55 -39.5 95t-95.5 40q-57 0 -96 -39t-39 -96zM485 1884q0 106 73 179t179 73t179 -73t73 -179t-73 -179t-179 -73q-105 0 -178.5 72t-73.5 176v4zM440 547h590l-246 629q-6 14 -18.5 53.5t-28.5 91.5
q-15 -51 -28 -90.5t-19 -54.5zM12 0l639 1567h170l660 -1567h-238l-139 362h-735l-140 -362h-217z" />
    <glyph glyph-name="AE" unicode="&#xc6;" horiz-adv-x="1810" 
d="M838 0v362h-519l-176 -362h-206l784 1565h917v-185h-610v-489h610v-180h-610v-527h610v-184h-800zM403 532h435v902z" />
    <glyph glyph-name="Ccedilla" unicode="&#xc7;" horiz-adv-x="1536" 
d="M1317 1247q-86 83 -190 123.5t-228 40.5q-126 0 -231.5 -41.5t-188.5 -124.5q-89 -90 -134.5 -207t-45.5 -256q0 -138 45.5 -255t134.5 -208q80 -81 186.5 -123t233.5 -42q134 0 242 44t186 132l135 -146q-112 -108 -252.5 -161.5t-310.5 -53.5q-171 0 -314.5 54.5
t-252.5 160.5q-119 116 -180.5 268t-61.5 330t61.5 330.5t180.5 267.5q110 108 252 161.5t315 53.5q166 0 303.5 -50t245.5 -150zM653 -426v100q78 -18 143.5 -28.5t104.5 -10.5q60 0 89 20.5t29 61.5q0 44 -32 65t-101 21q-20 0 -31.5 -0.5t-20.5 -1.5l-1 199h78v-102h29
q109 0 166 -46t57 -135q0 -91 -64.5 -139.5t-185.5 -48.5q-51 0 -117 11.5t-143 33.5z" />
    <glyph glyph-name="Egrave" unicode="&#xc8;" horiz-adv-x="1165" 
d="M180 0v1565h813v-185h-610v-489h610v-180h-610v-527h610v-184h-813zM757 1706h-120l-285 351h201z" />
    <glyph glyph-name="Eacute" unicode="&#xc9;" horiz-adv-x="1165" 
d="M180 0v1565h813v-185h-610v-489h610v-180h-610v-527h610v-184h-813zM471 1706l204 351h201l-285 -351h-120z" />
    <glyph glyph-name="Ecircumflex" unicode="&#xca;" horiz-adv-x="1165" 
d="M180 0v1565h813v-185h-610v-489h610v-180h-610v-527h610v-184h-813zM319 1706l197 351h196l197 -351h-123l-172 230l-174 -230h-121z" />
    <glyph glyph-name="Edieresis" unicode="&#xcb;" horiz-adv-x="1165" 
d="M180 0v1565h813v-185h-610v-489h610v-180h-610v-527h610v-184h-813zM684 1870q0 45 33.5 79t78.5 34q46 0 79.5 -33.5t33.5 -79.5q0 -49 -32 -80.5t-81 -31.5q-48 0 -80 32t-32 80zM319 1870q0 45 34.5 79t80.5 34t78 -33t32 -80q0 -49 -30.5 -80.5t-79.5 -31.5
q-50 0 -82.5 31.5t-32.5 80.5z" />
    <glyph glyph-name="Igrave" unicode="&#xcc;" horiz-adv-x="569" 
d="M180 0v1565h203v-1565h-203zM428 1706h-120l-285 351h201z" />
    <glyph glyph-name="Iacute" unicode="&#xcd;" horiz-adv-x="569" 
d="M180 0v1565h203v-1565h-203zM142 1706l204 351h201l-285 -351h-120z" />
    <glyph glyph-name="Icircumflex" unicode="&#xce;" horiz-adv-x="569" 
d="M180 0v1565h203v-1565h-203zM-10 1706l197 351h196l197 -351h-123l-172 230l-174 -230h-121z" />
    <glyph glyph-name="Idieresis" unicode="&#xcf;" horiz-adv-x="569" 
d="M180 0v1565h203v-1565h-203zM355 1870q0 45 33.5 79t78.5 34q46 0 79.5 -33.5t33.5 -79.5q0 -49 -32 -80.5t-81 -31.5q-48 0 -80 32t-32 80zM-10 1870q0 45 34.5 79t80.5 34t78 -33t32 -80q0 -49 -30.5 -80.5t-79.5 -31.5q-50 0 -82.5 31.5t-32.5 80.5z" />
    <glyph glyph-name="Eth" unicode="&#xd0;" horiz-adv-x="1507" 
d="M383 1380v-514h399v-118h-399v-564h152q328 0 494.5 151t166.5 447q0 297 -166.5 447.5t-494.5 150.5h-152zM504 1565q440 0 669.5 -199.5t229.5 -583.5q0 -383 -229.5 -582.5t-669.5 -199.5h-324v748h-180v118h180v699h324z" />
    <glyph glyph-name="Ntilde" unicode="&#xd1;" horiz-adv-x="1583" 
d="M180 0v1565h191l759 -1082q32 -44 60 -96t53 -113q-19 71 -29 134t-10 114v1043h199v-1565h-166l-793 1130q-44 63 -64.5 102.5t-33.5 80.5q17 -81 25 -150.5t8 -130.5v-1032h-199zM1086 1983q-20 -101 -70.5 -154t-126.5 -53q-14 0 -30 2.5t-35 7.5l-97 29
q-10 3 -21 4.5t-28 1.5q-31 0 -53.5 -17.5t-36.5 -52.5h-88q18 100 68 153.5t125 53.5q17 0 32 -2t27 -6l99 -29q15 -4 28 -6t25 -2q33 0 56.5 17.5t37.5 52.5h88z" />
    <glyph glyph-name="Ograve" unicode="&#xd2;" horiz-adv-x="1825" 
d="M897 154q129 0 235 41.5t187 123.5q88 89 134 207t46 256q0 137 -46 254.5t-136 208.5q-82 83 -188 124.5t-232 41.5q-125 0 -231.5 -42t-186.5 -124q-88 -88 -134 -206t-46 -257q0 -138 46 -256t134 -207q82 -82 186.5 -123.5t231.5 -41.5zM899 -31q-172 0 -313.5 54
t-253.5 163q-119 116 -180.5 267.5t-61.5 328.5t62.5 329.5t181.5 268.5q110 107 252 161t313 54t313 -54t252 -161q120 -116 182 -268.5t62 -329.5t-61.5 -328.5t-180.5 -267.5q-112 -109 -253 -163t-314 -54zM1056 1706h-120l-285 351h201z" />
    <glyph glyph-name="Oacute" unicode="&#xd3;" horiz-adv-x="1825" 
d="M897 154q129 0 235 41.5t187 123.5q88 89 134 207t46 256q0 137 -46 254.5t-136 208.5q-82 83 -188 124.5t-232 41.5q-125 0 -231.5 -42t-186.5 -124q-88 -88 -134 -206t-46 -257q0 -138 46 -256t134 -207q82 -82 186.5 -123.5t231.5 -41.5zM899 -31q-172 0 -313.5 54
t-253.5 163q-119 116 -180.5 267.5t-61.5 328.5t62.5 329.5t181.5 268.5q110 107 252 161t313 54t313 -54t252 -161q120 -116 182 -268.5t62 -329.5t-61.5 -328.5t-180.5 -267.5q-112 -109 -253 -163t-314 -54zM770 1706l204 351h201l-285 -351h-120z" />
    <glyph glyph-name="Ocircumflex" unicode="&#xd4;" horiz-adv-x="1825" 
d="M897 154q129 0 235 41.5t187 123.5q88 89 134 207t46 256q0 137 -46 254.5t-136 208.5q-82 83 -188 124.5t-232 41.5q-125 0 -231.5 -42t-186.5 -124q-88 -88 -134 -206t-46 -257q0 -138 46 -256t134 -207q82 -82 186.5 -123.5t231.5 -41.5zM899 -31q-172 0 -313.5 54
t-253.5 163q-119 116 -180.5 267.5t-61.5 328.5t62.5 329.5t181.5 268.5q110 107 252 161t313 54t313 -54t252 -161q120 -116 182 -268.5t62 -329.5t-61.5 -328.5t-180.5 -267.5q-112 -109 -253 -163t-314 -54zM618 1706l197 351h196l197 -351h-123l-172 230l-174 -230h-121
z" />
    <glyph glyph-name="Otilde" unicode="&#xd5;" horiz-adv-x="1825" 
d="M897 154q129 0 235 41.5t187 123.5q88 89 134 207t46 256q0 137 -46 254.5t-136 208.5q-82 83 -188 124.5t-232 41.5q-125 0 -231.5 -42t-186.5 -124q-88 -88 -134 -206t-46 -257q0 -138 46 -256t134 -207q82 -82 186.5 -123.5t231.5 -41.5zM899 -31q-172 0 -313.5 54
t-253.5 163q-119 116 -180.5 267.5t-61.5 328.5t62.5 329.5t181.5 268.5q110 107 252 161t313 54t313 -54t252 -161q120 -116 182 -268.5t62 -329.5t-61.5 -328.5t-180.5 -267.5q-112 -109 -253 -163t-314 -54zM1206 1983q-20 -101 -70.5 -154t-126.5 -53q-14 0 -30 2.5
t-35 7.5l-97 29q-10 3 -21 4.5t-28 1.5q-31 0 -53.5 -17.5t-36.5 -52.5h-88q18 100 68 153.5t125 53.5q17 0 32 -2t27 -6l99 -29q15 -4 28 -6t25 -2q33 0 56.5 17.5t37.5 52.5h88z" />
    <glyph glyph-name="Odieresis" unicode="&#xd6;" horiz-adv-x="1825" 
d="M897 154q129 0 235 41.5t187 123.5q88 89 134 207t46 256q0 137 -46 254.5t-136 208.5q-82 83 -188 124.5t-232 41.5q-125 0 -231.5 -42t-186.5 -124q-88 -88 -134 -206t-46 -257q0 -138 46 -256t134 -207q82 -82 186.5 -123.5t231.5 -41.5zM899 -31q-172 0 -313.5 54
t-253.5 163q-119 116 -180.5 267.5t-61.5 328.5t62.5 329.5t181.5 268.5q110 107 252 161t313 54t313 -54t252 -161q120 -116 182 -268.5t62 -329.5t-61.5 -328.5t-180.5 -267.5q-112 -109 -253 -163t-314 -54zM983 1870q0 45 33.5 79t78.5 34q46 0 79.5 -33.5t33.5 -79.5
q0 -49 -32 -80.5t-81 -31.5q-48 0 -80 32t-32 80zM618 1870q0 45 34.5 79t80.5 34t78 -33t32 -80q0 -49 -30.5 -80.5t-79.5 -31.5q-50 0 -82.5 31.5t-32.5 80.5z" />
    <glyph glyph-name="multiply" unicode="&#xd7;" horiz-adv-x="1706" 
d="M403 1188l459 -459l461 459l117 -117l-459 -461l459 -458l-117 -119l-461 461l-459 -461l-116 119l458 458l-458 461z" />
    <glyph glyph-name="Oslash" unicode="&#xd8;" horiz-adv-x="1825" 
d="M1409 1415q147 -114 223 -275t76 -358q0 -178 -62 -330.5t-182 -269.5q-108 -105 -251 -159t-314 -54q-119 0 -218.5 25t-184.5 76l-162 -244l-115 78l168 246q-146 113 -221.5 273.5t-75.5 358.5q0 179 62 331.5t182 268.5q108 106 251 159.5t314 53.5q118 0 217 -24.5
t184 -75.5l162 244l115 -78zM1309 1264l-713 -1047q69 -32 140 -47.5t149 -15.5q274 0 444 174t170 454q0 136 -48.5 258t-141.5 224zM489 297l709 1049q-62 31 -141 48t-160 17q-127 0 -231.5 -41.5t-186.5 -124.5q-89 -90 -134.5 -207t-45.5 -256q0 -136 50.5 -264
t139.5 -221z" />
    <glyph glyph-name="Ugrave" unicode="&#xd9;" horiz-adv-x="1532" 
d="M371 1565v-965q0 -213 103 -328.5t292 -115.5q190 0 291.5 114.5t101.5 329.5v965h205v-977q0 -281 -164 -450t-434 -169q-271 0 -435.5 168.5t-164.5 450.5v977h205zM909 1706h-120l-285 351h201z" />
    <glyph glyph-name="Uacute" unicode="&#xda;" horiz-adv-x="1532" 
d="M371 1565v-965q0 -213 103 -328.5t292 -115.5q190 0 291.5 114.5t101.5 329.5v965h205v-977q0 -281 -164 -450t-434 -169q-271 0 -435.5 168.5t-164.5 450.5v977h205zM623 1706l204 351h201l-285 -351h-120z" />
    <glyph glyph-name="Ucircumflex" unicode="&#xdb;" horiz-adv-x="1532" 
d="M371 1565v-965q0 -213 103 -328.5t292 -115.5q190 0 291.5 114.5t101.5 329.5v965h205v-977q0 -281 -164 -450t-434 -169q-271 0 -435.5 168.5t-164.5 450.5v977h205zM471 1706l197 351h196l197 -351h-123l-172 230l-174 -230h-121z" />
    <glyph glyph-name="Udieresis" unicode="&#xdc;" horiz-adv-x="1532" 
d="M371 1565v-965q0 -213 103 -328.5t292 -115.5q190 0 291.5 114.5t101.5 329.5v965h205v-977q0 -281 -164 -450t-434 -169q-271 0 -435.5 168.5t-164.5 450.5v977h205zM836 1870q0 45 33.5 79t78.5 34q46 0 79.5 -33.5t33.5 -79.5q0 -49 -32 -80.5t-81 -31.5q-48 0 -80 32
t-32 80zM471 1870q0 45 34.5 79t80.5 34t78 -33t32 -80q0 -49 -30.5 -80.5t-79.5 -31.5q-50 0 -82.5 31.5t-32.5 80.5z" />
    <glyph glyph-name="Yacute" unicode="&#xdd;" horiz-adv-x="1255" 
d="M530 0v633l-532 932h238l364 -676q14 -28 20.5 -43.5t12.5 -31.5q4 15 10.5 30.5t21.5 43.5l363 677h229l-522 -934v-631h-205zM486 1706l204 351h201l-285 -351h-120z" />
    <glyph glyph-name="Thorn" unicode="&#xde;" horiz-adv-x="1147" 
d="M383 481h162q164 0 256 88.5t92 245.5t-97 239.5t-284 82.5h-129v-656zM383 0h-203v1565h203v-244h131q271 0 429.5 -139.5t158.5 -374.5q0 -225 -153 -368.5t-396 -143.5h-170v-295z" />
    <glyph glyph-name="germandbls" unicode="&#xdf;" horiz-adv-x="1262" 
d="M209 0v915h-146v160h146v49q0 209 103 324t290 115q171 0 280 -105.5t109 -269.5q0 -103 -47 -176t-135 -107q165 -27 261.5 -142t96.5 -284q0 -220 -142 -363t-361 -143q-56 0 -104 10t-93 31l45 172q38 -16 75 -24t75 -8q134 0 220.5 89t86.5 226q0 147 -100 238.5
t-261 91.5h-59v162h43q99 0 156 58.5t57 162.5q0 95 -57.5 157t-145.5 62q-110 0 -157.5 -69t-47.5 -240v-1092h-188z" />
    <glyph glyph-name="agrave" unicode="&#xe0;" horiz-adv-x="1360" 
d="M649 150q163 0 268 109t105 280q0 170 -105 279.5t-268 109.5t-268 -109t-105 -280q0 -172 105 -280.5t268 -108.5zM1202 0h-190v176q-68 -95 -165.5 -142.5t-223.5 -47.5q-112 0 -213.5 42.5t-180.5 123.5q-75 78 -113 176t-38 213q0 249 149.5 402t395.5 153
q124 0 227 -50.5t176 -146.5v176h176v-1075zM772 1210h-120l-285 351h201z" />
    <glyph glyph-name="aacute" unicode="&#xe1;" horiz-adv-x="1360" 
d="M649 150q163 0 268 109t105 280q0 170 -105 279.5t-268 109.5t-268 -109t-105 -280q0 -172 105 -280.5t268 -108.5zM1202 0h-190v176q-68 -95 -165.5 -142.5t-223.5 -47.5q-112 0 -213.5 42.5t-180.5 123.5q-75 78 -113 176t-38 213q0 249 149.5 402t395.5 153
q124 0 227 -50.5t176 -146.5v176h176v-1075zM486 1210l204 351h201l-285 -351h-120z" />
    <glyph glyph-name="acircumflex" unicode="&#xe2;" horiz-adv-x="1360" 
d="M649 150q163 0 268 109t105 280q0 170 -105 279.5t-268 109.5t-268 -109t-105 -280q0 -172 105 -280.5t268 -108.5zM1202 0h-190v176q-68 -95 -165.5 -142.5t-223.5 -47.5q-112 0 -213.5 42.5t-180.5 123.5q-75 78 -113 176t-38 213q0 249 149.5 402t395.5 153
q124 0 227 -50.5t176 -146.5v176h176v-1075zM334 1210l197 351h196l197 -351h-123l-172 230l-174 -230h-121z" />
    <glyph glyph-name="atilde" unicode="&#xe3;" horiz-adv-x="1360" 
d="M649 150q163 0 268 109t105 280q0 170 -105 279.5t-268 109.5t-268 -109t-105 -280q0 -172 105 -280.5t268 -108.5zM1202 0h-190v176q-68 -95 -165.5 -142.5t-223.5 -47.5q-112 0 -213.5 42.5t-180.5 123.5q-75 78 -113 176t-38 213q0 249 149.5 402t395.5 153
q124 0 227 -50.5t176 -146.5v176h176v-1075zM922 1487q-20 -101 -70.5 -154t-126.5 -53q-14 0 -30 2.5t-35 7.5l-97 29q-10 3 -21 4.5t-28 1.5q-31 0 -53.5 -17.5t-36.5 -52.5h-88q18 100 68 153.5t125 53.5q17 0 32 -2t27 -6l99 -29q15 -4 28 -6t25 -2q33 0 56.5 17.5
t37.5 52.5h88z" />
    <glyph glyph-name="adieresis" unicode="&#xe4;" horiz-adv-x="1360" 
d="M649 150q163 0 268 109t105 280q0 170 -105 279.5t-268 109.5t-268 -109t-105 -280q0 -172 105 -280.5t268 -108.5zM1202 0h-190v176q-68 -95 -165.5 -142.5t-223.5 -47.5q-112 0 -213.5 42.5t-180.5 123.5q-75 78 -113 176t-38 213q0 249 149.5 402t395.5 153
q124 0 227 -50.5t176 -146.5v176h176v-1075zM699 1374q0 45 33.5 79t78.5 34q46 0 79.5 -33.5t33.5 -79.5q0 -49 -32 -80.5t-81 -31.5q-48 0 -80 32t-32 80zM334 1374q0 45 34.5 79t80.5 34t78 -33t32 -80q0 -49 -30.5 -80.5t-79.5 -31.5q-50 0 -82.5 31.5t-32.5 80.5z" />
    <glyph glyph-name="aring" unicode="&#xe5;" horiz-adv-x="1360" 
d="M535 1415q0 -57 39 -97t96 -40q55 0 95 40.5t40 96.5q0 55 -40 94t-95 39q-57 0 -96 -38t-39 -95zM418 1415q0 106 72.5 178t179.5 72q106 0 179 -72t73 -178t-73.5 -180t-178.5 -74q-106 0 -179 74t-73 180zM649 150q163 0 268 109t105 280q0 170 -105 279.5t-268 109.5
t-268 -109t-105 -280q0 -172 105 -280.5t268 -108.5zM1202 0h-190v176q-68 -95 -165.5 -142.5t-223.5 -47.5q-112 0 -213.5 42.5t-180.5 123.5q-75 78 -113 176t-38 213q0 249 149.5 402t395.5 153q124 0 227 -50.5t176 -146.5v176h176v-1075z" />
    <glyph glyph-name="ae" unicode="&#xe6;" horiz-adv-x="2195" 
d="M1184 627h717q-19 137 -116.5 222t-238.5 85q-142 0 -244.5 -86.5t-117.5 -220.5zM1169 1075v-176q74 100 175.5 151.5t224.5 51.5q235 0 388.5 -171t153.5 -437v-19h-927q9 -147 116.5 -239.5t270.5 -92.5q103 0 192 43.5t164 130.5l139 -110q-100 -116 -220.5 -175
t-256.5 -59q-140 0 -249 57t-171 163v-193h-143v203q-63 -108 -165 -162.5t-238 -54.5q-112 0 -214.5 43t-181.5 123q-73 75 -111 173.5t-38 215.5q0 249 149.5 402t395.5 153q124 0 227 -50.5t176 -146.5v176h143zM649 150q163 0 268 109t105 280q0 170 -105 279.5
t-268 109.5t-268 -109t-105 -280q0 -172 105 -280.5t268 -108.5z" />
    <glyph glyph-name="ccedilla" unicode="&#xe7;" horiz-adv-x="1098" 
d="M889 825q-49 56 -111.5 82.5t-142.5 26.5q-155 0 -254.5 -111.5t-99.5 -285.5t98.5 -284t255.5 -110q85 0 150.5 30t111.5 89l123 -141q-84 -77 -176.5 -112.5t-208.5 -35.5q-119 0 -220 40t-175 116q-79 80 -119.5 183.5t-40.5 224.5t40.5 225t119.5 184
q75 77 175 116.5t220 39.5q114 0 206.5 -34t168.5 -103zM399 -426v100q78 -18 143.5 -28.5t104.5 -10.5q60 0 89 20.5t29 61.5q0 44 -32 65t-101 21q-20 0 -31.5 -0.5t-20.5 -1.5l-1 199h78v-102h29q109 0 166 -46t57 -135q0 -91 -64.5 -139.5t-185.5 -48.5q-51 0 -117 11.5
t-143 33.5z" />
    <glyph glyph-name="egrave" unicode="&#xe8;" horiz-adv-x="1280" 
d="M272 627h715q-18 137 -116 222t-238 85q-142 0 -243.5 -86.5t-117.5 -220.5zM272 475q10 -148 116.5 -240t268.5 -92q104 0 194 44t165 130l137 -110q-103 -120 -225.5 -177t-276.5 -57q-127 0 -237 46t-189 131q-69 75 -106 173.5t-37 206.5q0 256 153 414t400 158
q252 0 407.5 -168.5t155.5 -444.5v-14h-926zM784 1210h-120l-285 351h201z" />
    <glyph glyph-name="eacute" unicode="&#xe9;" horiz-adv-x="1280" 
d="M272 627h715q-18 137 -116 222t-238 85q-142 0 -243.5 -86.5t-117.5 -220.5zM272 475q10 -148 116.5 -240t268.5 -92q104 0 194 44t165 130l137 -110q-103 -120 -225.5 -177t-276.5 -57q-127 0 -237 46t-189 131q-69 75 -106 173.5t-37 206.5q0 256 153 414t400 158
q252 0 407.5 -168.5t155.5 -444.5v-14h-926zM498 1210l204 351h201l-285 -351h-120z" />
    <glyph glyph-name="ecircumflex" unicode="&#xea;" horiz-adv-x="1280" 
d="M272 627h715q-18 137 -116 222t-238 85q-142 0 -243.5 -86.5t-117.5 -220.5zM272 475q10 -148 116.5 -240t268.5 -92q104 0 194 44t165 130l137 -110q-103 -120 -225.5 -177t-276.5 -57q-127 0 -237 46t-189 131q-69 75 -106 173.5t-37 206.5q0 256 153 414t400 158
q252 0 407.5 -168.5t155.5 -444.5v-14h-926zM346 1210l197 351h196l197 -351h-123l-172 230l-174 -230h-121z" />
    <glyph glyph-name="edieresis" unicode="&#xeb;" horiz-adv-x="1280" 
d="M272 627h715q-18 137 -116 222t-238 85q-142 0 -243.5 -86.5t-117.5 -220.5zM272 475q10 -148 116.5 -240t268.5 -92q104 0 194 44t165 130l137 -110q-103 -120 -225.5 -177t-276.5 -57q-127 0 -237 46t-189 131q-69 75 -106 173.5t-37 206.5q0 256 153 414t400 158
q252 0 407.5 -168.5t155.5 -444.5v-14h-926zM711 1374q0 45 33.5 79t78.5 34q46 0 79.5 -33.5t33.5 -79.5q0 -49 -32 -80.5t-81 -31.5q-48 0 -80 32t-32 80zM346 1374q0 45 34.5 79t80.5 34t78 -33t32 -80q0 -49 -30.5 -80.5t-79.5 -31.5q-50 0 -82.5 31.5t-32.5 80.5z" />
    <glyph glyph-name="igrave" unicode="&#xec;" horiz-adv-x="512" 
d="M162 0v1075h188v-1075h-188zM399 1210h-120l-285 351h201z" />
    <glyph glyph-name="iacute" unicode="&#xed;" horiz-adv-x="512" 
d="M162 0v1075h188v-1075h-188zM113 1210l204 351h201l-285 -351h-120z" />
    <glyph glyph-name="icircumflex" unicode="&#xee;" horiz-adv-x="512" 
d="M162 0v1075h188v-1075h-188zM-39 1210l197 351h196l197 -351h-123l-172 230l-174 -230h-121z" />
    <glyph glyph-name="idieresis" unicode="&#xef;" horiz-adv-x="512" 
d="M162 0v1075h188v-1075h-188zM326 1374q0 45 33.5 79t78.5 34q46 0 79.5 -33.5t33.5 -79.5q0 -49 -32 -80.5t-81 -31.5q-48 0 -80 32t-32 80zM-39 1374q0 45 34.5 79t80.5 34t78 -33t32 -80q0 -49 -30.5 -80.5t-79.5 -31.5q-50 0 -82.5 31.5t-32.5 80.5z" />
    <glyph glyph-name="eth" unicode="&#xf0;" horiz-adv-x="1241" 
d="M621 139q151 0 248.5 109t97.5 278q0 170 -97.5 278.5t-248.5 108.5q-150 0 -247.5 -109t-97.5 -278q0 -167 98 -277t247 -110zM852 1014q-44 65 -103 126.5t-133 121.5l-301 -164l-45 82l260 141q-49 34 -96.5 64t-93.5 57l68 123q52 -26 120.5 -66.5t149.5 -95.5
l231 129l45 -82l-194 -111q200 -161 301.5 -359t101.5 -425q0 -261 -150.5 -421.5t-391.5 -160.5q-111 0 -209 41t-176 119q-78 79 -117 177.5t-39 213.5q0 119 39.5 219t116.5 177q75 77 173.5 117t211.5 40q65 0 122 -15.5t109 -47.5z" />
    <glyph glyph-name="ntilde" unicode="&#xf1;" horiz-adv-x="1214" 
d="M164 0v1075h188v-123q71 73 149.5 108.5t168.5 35.5q185 0 292 -126t107 -347v-623h-190v604q0 169 -58.5 247.5t-183.5 78.5q-142 0 -213.5 -83.5t-71.5 -250.5v-596h-188zM952 1487q-20 -101 -70.5 -154t-126.5 -53q-14 0 -30 2.5t-35 7.5l-97 29q-10 3 -21 4.5
t-28 1.5q-31 0 -53.5 -17.5t-36.5 -52.5h-88q18 100 68 153.5t125 53.5q17 0 32 -2t27 -6l99 -29q15 -4 28 -6t25 -2q33 0 56.5 17.5t37.5 52.5h88z" />
    <glyph glyph-name="ograve" unicode="&#xf2;" horiz-adv-x="1266" 
d="M633 141q154 0 253 110.5t99 285.5q0 174 -99 285.5t-253 111.5t-253 -112t-99 -285t99.5 -284.5t252.5 -111.5zM633 1102q117 0 218 -41t179 -121q76 -77 116 -180.5t40 -222.5q0 -120 -40 -222t-118 -180q-79 -79 -180 -120.5t-215 -41.5t-215 41.5t-180 120.5
q-78 78 -118 179.5t-40 222.5q0 120 40 222.5t118 180.5q79 79 180 120.5t215 41.5zM776 1210h-120l-285 351h201z" />
    <glyph glyph-name="oacute" unicode="&#xf3;" horiz-adv-x="1266" 
d="M633 141q154 0 253 110.5t99 285.5q0 174 -99 285.5t-253 111.5t-253 -112t-99 -285t99.5 -284.5t252.5 -111.5zM633 1102q117 0 218 -41t179 -121q76 -77 116 -180.5t40 -222.5q0 -120 -40 -222t-118 -180q-79 -79 -180 -120.5t-215 -41.5t-215 41.5t-180 120.5
q-78 78 -118 179.5t-40 222.5q0 120 40 222.5t118 180.5q79 79 180 120.5t215 41.5zM490 1210l204 351h201l-285 -351h-120z" />
    <glyph glyph-name="ocircumflex" unicode="&#xf4;" horiz-adv-x="1266" 
d="M633 141q154 0 253 110.5t99 285.5q0 174 -99 285.5t-253 111.5t-253 -112t-99 -285t99.5 -284.5t252.5 -111.5zM633 1102q117 0 218 -41t179 -121q76 -77 116 -180.5t40 -222.5q0 -120 -40 -222t-118 -180q-79 -79 -180 -120.5t-215 -41.5t-215 41.5t-180 120.5
q-78 78 -118 179.5t-40 222.5q0 120 40 222.5t118 180.5q79 79 180 120.5t215 41.5zM338 1210l197 351h196l197 -351h-123l-172 230l-174 -230h-121z" />
    <glyph glyph-name="otilde" unicode="&#xf5;" horiz-adv-x="1266" 
d="M633 141q154 0 253 110.5t99 285.5q0 174 -99 285.5t-253 111.5t-253 -112t-99 -285t99.5 -284.5t252.5 -111.5zM633 1102q117 0 218 -41t179 -121q76 -77 116 -180.5t40 -222.5q0 -120 -40 -222t-118 -180q-79 -79 -180 -120.5t-215 -41.5t-215 41.5t-180 120.5
q-78 78 -118 179.5t-40 222.5q0 120 40 222.5t118 180.5q79 79 180 120.5t215 41.5zM926 1487q-20 -101 -70.5 -154t-126.5 -53q-14 0 -30 2.5t-35 7.5l-97 29q-10 3 -21 4.5t-28 1.5q-31 0 -53.5 -17.5t-36.5 -52.5h-88q18 100 68 153.5t125 53.5q17 0 32 -2t27 -6l99 -29
q15 -4 28 -6t25 -2q33 0 56.5 17.5t37.5 52.5h88z" />
    <glyph glyph-name="odieresis" unicode="&#xf6;" horiz-adv-x="1266" 
d="M633 141q154 0 253 110.5t99 285.5q0 174 -99 285.5t-253 111.5t-253 -112t-99 -285t99.5 -284.5t252.5 -111.5zM633 1102q117 0 218 -41t179 -121q76 -77 116 -180.5t40 -222.5q0 -120 -40 -222t-118 -180q-79 -79 -180 -120.5t-215 -41.5t-215 41.5t-180 120.5
q-78 78 -118 179.5t-40 222.5q0 120 40 222.5t118 180.5q79 79 180 120.5t215 41.5zM703 1374q0 45 33.5 79t78.5 34q46 0 79.5 -33.5t33.5 -79.5q0 -49 -32 -80.5t-81 -31.5q-48 0 -80 32t-32 80zM338 1374q0 45 34.5 79t80.5 34t78 -33t32 -80q0 -49 -30.5 -80.5
t-79.5 -31.5q-50 0 -82.5 31.5t-32.5 80.5z" />
    <glyph glyph-name="divide" unicode="&#xf7;" horiz-adv-x="1706" 
d="M854 367q57 0 97 -40.5t40 -97.5q0 -56 -39.5 -95.5t-97.5 -39.5t-97.5 39t-39.5 96t40.5 97.5t96.5 40.5zM254 694h1198v-166h-1198v166zM854 1128q57 0 97 -41t40 -98q0 -56 -39.5 -95.5t-97.5 -39.5t-97.5 39t-39.5 96t40.5 98t96.5 41z" />
    <glyph glyph-name="oslash" unicode="&#xf8;" horiz-adv-x="1266" 
d="M993 963q99 -89 146 -192t47 -234q0 -120 -40 -222t-118 -180q-79 -79 -180 -120.5t-215 -41.5q-70 0 -134.5 16.5t-123.5 49.5l-162 -234l-104 70l161 238q-98 88 -144 190t-46 234q0 120 40 223t118 180q79 79 180 120.5t215 41.5q69 0 132.5 -16.5t123.5 -49.5
l162 234l104 -70zM897 817l-434 -641q34 -18 71.5 -26.5t81.5 -8.5q166 0 267.5 108.5t101.5 287.5q0 82 -21.5 151.5t-66.5 128.5zM369 260l428 639q-52 18 -92 26.5t-72 8.5q-153 0 -252.5 -112.5t-99.5 -284.5q0 -84 21.5 -151t66.5 -126z" />
    <glyph glyph-name="ugrave" unicode="&#xf9;" horiz-adv-x="1186" 
d="M332 1075v-596q0 -161 68 -249.5t192 -88.5t192 88t68 250v596h190v-608q0 -231 -119.5 -362.5t-330.5 -131.5t-330 131t-119 363v608h189zM737 1210h-120l-285 351h201z" />
    <glyph glyph-name="uacute" unicode="&#xfa;" horiz-adv-x="1186" 
d="M332 1075v-596q0 -161 68 -249.5t192 -88.5t192 88t68 250v596h190v-608q0 -231 -119.5 -362.5t-330.5 -131.5t-330 131t-119 363v608h189zM451 1210l204 351h201l-285 -351h-120z" />
    <glyph glyph-name="ucircumflex" unicode="&#xfb;" horiz-adv-x="1186" 
d="M332 1075v-596q0 -161 68 -249.5t192 -88.5t192 88t68 250v596h190v-608q0 -231 -119.5 -362.5t-330.5 -131.5t-330 131t-119 363v608h189zM299 1210l197 351h196l197 -351h-123l-172 230l-174 -230h-121z" />
    <glyph glyph-name="udieresis" unicode="&#xfc;" horiz-adv-x="1186" 
d="M332 1075v-596q0 -161 68 -249.5t192 -88.5t192 88t68 250v596h190v-608q0 -231 -119.5 -362.5t-330.5 -131.5t-330 131t-119 363v608h189zM664 1374q0 45 33.5 79t78.5 34q46 0 79.5 -33.5t33.5 -79.5q0 -49 -32 -80.5t-81 -31.5q-48 0 -80 32t-32 80zM299 1374
q0 45 34.5 79t80.5 34t78 -33t32 -80q0 -49 -30.5 -80.5t-79.5 -31.5q-50 0 -82.5 31.5t-32.5 80.5z" />
    <glyph glyph-name="yacute" unicode="&#xfd;" horiz-adv-x="1139" 
d="M465 0l-449 1075h213l277 -680q7 -15 24.5 -72t42.5 -147q28 85 47.5 143.5t26.5 75.5l281 680h209l-668 -1521h-193zM426 1210l204 351h201l-285 -351h-120z" />
    <glyph glyph-name="thorn" unicode="&#xfe;" horiz-adv-x="1360" 
d="M160 -446v2000h190v-639q64 86 165 133.5t222 47.5q245 0 395 -153.5t150 -401.5q0 -117 -38 -215.5t-111 -173.5q-79 -80 -181.5 -123t-214.5 -43q-126 0 -224.5 48t-164.5 142v-622h-188zM711 150q163 0 267.5 108.5t104.5 280.5q0 171 -104.5 280t-267.5 109
t-268 -109.5t-105 -279.5q0 -171 105 -280t268 -109z" />
    <glyph glyph-name="ydieresis" unicode="&#xff;" horiz-adv-x="1139" 
d="M465 0l-449 1075h213l277 -680q7 -15 24.5 -72t42.5 -147q28 85 47.5 143.5t26.5 75.5l281 680h209l-668 -1521h-193zM639 1374q0 45 33.5 79t78.5 34q46 0 79.5 -33.5t33.5 -79.5q0 -49 -32 -80.5t-81 -31.5q-48 0 -80 32t-32 80zM274 1374q0 45 34.5 79t80.5 34t78 -33
t32 -80q0 -49 -30.5 -80.5t-79.5 -31.5q-50 0 -82.5 31.5t-32.5 80.5z" />
    <glyph glyph-name="Cacute" unicode="&#x106;" horiz-adv-x="1536" 
d="M1317 1247q-86 83 -190 123.5t-228 40.5q-126 0 -231.5 -41.5t-188.5 -124.5q-89 -90 -134.5 -207t-45.5 -256q0 -138 45.5 -255t134.5 -208q80 -81 186.5 -123t233.5 -42q134 0 242 44t186 132l135 -146q-112 -108 -252.5 -161.5t-310.5 -53.5q-171 0 -314.5 54.5
t-252.5 160.5q-119 116 -180.5 268t-61.5 330t61.5 330.5t180.5 267.5q110 108 252 161.5t315 53.5q166 0 303.5 -50t245.5 -150zM746 1706l204 351h201l-285 -351h-120z" />
    <glyph glyph-name="cacute" unicode="&#x107;" horiz-adv-x="1098" 
d="M889 825q-49 56 -111.5 82.5t-142.5 26.5q-155 0 -254.5 -111.5t-99.5 -285.5t98.5 -284t255.5 -110q85 0 150.5 30t111.5 89l123 -141q-84 -77 -176.5 -112.5t-208.5 -35.5q-119 0 -220 40t-175 116q-79 80 -119.5 183.5t-40.5 224.5t40.5 225t119.5 184
q75 77 175 116.5t220 39.5q114 0 206.5 -34t168.5 -103zM488 1210l204 351h201l-285 -351h-120z" />
    <glyph glyph-name="Ccaron" unicode="&#x10c;" horiz-adv-x="1536" 
d="M1317 1247q-86 83 -190 123.5t-228 40.5q-126 0 -231.5 -41.5t-188.5 -124.5q-89 -90 -134.5 -207t-45.5 -256q0 -138 45.5 -255t134.5 -208q80 -81 186.5 -123t233.5 -42q134 0 242 44t186 132l135 -146q-112 -108 -252.5 -161.5t-310.5 -53.5q-171 0 -314.5 54.5
t-252.5 160.5q-119 116 -180.5 268t-61.5 330t61.5 330.5t180.5 267.5q110 108 252 161.5t315 53.5q166 0 303.5 -50t245.5 -150zM594 2057h121l174 -230l172 230h123l-197 -351h-196z" />
    <glyph glyph-name="ccaron" unicode="&#x10d;" horiz-adv-x="1098" 
d="M889 825q-49 56 -111.5 82.5t-142.5 26.5q-155 0 -254.5 -111.5t-99.5 -285.5t98.5 -284t255.5 -110q85 0 150.5 30t111.5 89l123 -141q-84 -77 -176.5 -112.5t-208.5 -35.5q-119 0 -220 40t-175 116q-79 80 -119.5 183.5t-40.5 224.5t40.5 225t119.5 184
q75 77 175 116.5t220 39.5q114 0 206.5 -34t168.5 -103zM336 1561h121l174 -230l172 230h123l-197 -351h-196z" />
    <glyph glyph-name="dcroat" unicode="&#x111;" horiz-adv-x="1380" 
d="M1221 1554v-211h159v-96h-159v-1247h-174v162q-77 -87 -181 -131.5t-231 -44.5q-250 0 -403.5 153.5t-153.5 401.5q0 237 160.5 396t396.5 159q127 0 226 -43.5t169 -130.5v325h-381v96h381v211h191zM659 930q-166 0 -273 -109t-107 -278q0 -171 106.5 -280t273.5 -109
q168 0 274.5 109t106.5 280q0 169 -107 278t-274 109z" />
    <glyph glyph-name="Gbreve" unicode="&#x11e;" horiz-adv-x="1792" 
d="M1315 1241q-79 83 -187 126.5t-235 43.5q-125 0 -229 -41.5t-185 -124.5q-89 -92 -134.5 -209t-45.5 -254q0 -138 45.5 -255t134.5 -208q81 -82 185 -123.5t229 -41.5q243 0 403 142t197 390h-559v186h772v-45q0 -139 -26.5 -256t-80.5 -209q-110 -193 -287.5 -293
t-412.5 -100q-171 0 -314.5 54.5t-252.5 160.5q-119 116 -180.5 268t-61.5 330t61.5 330.5t180.5 267.5q110 108 252 161.5t315 53.5q169 0 311.5 -53.5t249.5 -157.5zM606 2020l109 -1q5 -72 49 -105.5t133 -33.5t133 33.5t49 105.5l109 1q-11 -145 -81 -212t-210 -67
t-210 67t-81 212z" />
    <glyph glyph-name="gbreve" unicode="&#x11f;" horiz-adv-x="1360" 
d="M670 150q163 0 267.5 109t104.5 280q0 170 -104.5 279.5t-267.5 109.5q-164 0 -268.5 -109t-104.5 -280q0 -172 104.5 -280.5t268.5 -108.5zM1026 176q-62 -94 -159 -142t-224 -48q-112 0 -214.5 43t-180.5 123q-75 78 -113.5 176t-38.5 213q0 249 150.5 402t396.5 153
q125 0 228 -50.5t176 -146.5v176h174v-921q0 -300 -147.5 -454.5t-434.5 -154.5q-171 0 -301.5 60t-226.5 182l153 111q72 -91 169.5 -138t213.5 -47q187 0 283 102t96 300v61zM389 1524l109 -1q5 -72 49 -105.5t133 -33.5t133 33.5t49 105.5l109 1q-11 -145 -81 -212
t-210 -67t-210 67t-81 212z" />
    <glyph glyph-name="Idotaccent" unicode="&#x130;" horiz-adv-x="569" 
d="M180 0v1565h203v-1565h-203zM168 1870q0 48 35 83.5t82 35.5q48 0 84.5 -35.5t36.5 -83.5q0 -50 -35 -84.5t-86 -34.5q-50 0 -83.5 34t-33.5 85z" />
    <glyph glyph-name="dotlessi" unicode="&#x131;" horiz-adv-x="512" 
d="M162 0v1075h188v-1075h-188z" />
    <glyph glyph-name="Lslash" unicode="&#x141;" horiz-adv-x="985" 
d="M180 0v627l-180 -152v156l180 151v783h203v-662l281 234v-158l-281 -234v-555h539v-190h-742z" />
    <glyph glyph-name="lslash" unicode="&#x142;" horiz-adv-x="512" 
d="M162 0v705l-133 -109l-60 76l193 164v718h188v-606l129 109l64 -76l-193 -160v-821h-188z" />
    <glyph glyph-name="OE" unicode="&#x152;" horiz-adv-x="2427" 
d="M2255 1565v-185h-608v-489h608v-180h-608v-527h608v-184h-791v301q-69 -161 -215 -246.5t-350 -85.5q-173 0 -315.5 54.5t-253.5 162.5q-117 114 -178.5 266.5t-61.5 329.5q0 178 61.5 330t178.5 266q110 108 250.5 162.5t306.5 54.5q204 0 349 -79t228 -236v285h791z
M897 1411q-127 0 -231 -41.5t-187 -126.5q-88 -90 -134 -207t-46 -254t46 -254.5t134 -208.5q83 -82 187.5 -123.5t230.5 -41.5q118 0 218 41.5t171 119.5q85 93 128.5 211.5t43.5 255.5q0 136 -43.5 253.5t-128.5 209.5q-75 82 -174 124t-215 42z" />
    <glyph glyph-name="oe" unicode="&#x153;" horiz-adv-x="2171" 
d="M633 141q154 0 253 110.5t99 285.5q0 174 -99 285.5t-253 111.5t-253 -112t-99 -285t99.5 -284.5t252.5 -111.5zM1165 475q9 -148 116 -240t269 -92q104 0 194 44t165 130l137 -110q-101 -116 -221.5 -175t-257.5 -59q-159 0 -286.5 71t-201.5 200q-76 -131 -193.5 -201
t-262.5 -70q-111 0 -209.5 41.5t-175.5 120.5q-78 79 -118 181t-40 221t40 221.5t118 181.5q80 80 179.5 121t215.5 41q135 0 250.5 -68.5t195.5 -195.5q80 130 193.5 197t255.5 67q252 0 407.5 -168.5t155.5 -444.5v-14h-926zM1165 627h715q-18 138 -115 222.5t-237 84.5
q-143 0 -245 -86.5t-118 -220.5z" />
    <glyph glyph-name="Scedilla" unicode="&#x15e;" horiz-adv-x="1262" 
d="M303 448q2 -139 86 -217.5t232 -78.5q135 0 217 67t82 176q0 107 -63.5 171.5t-264.5 131.5q-16 6 -48 16q-199 67 -292 144q-66 54 -99.5 133t-33.5 180q0 194 128.5 309t344.5 115q229 0 364 -124.5t146 -346.5h-205q-18 150 -94 225.5t-209 75.5q-125 0 -202 -69.5
t-77 -184.5q0 -58 21 -104.5t61 -75.5q59 -43 200 -88q41 -13 62 -20q264 -90 365.5 -197t101.5 -280q0 -189 -144 -313t-366 -124q-225 0 -363 125.5t-157 345.5zM387 -426v100q78 -18 143.5 -28.5t104.5 -10.5q60 0 89 20.5t29 61.5q0 44 -32 65t-101 21q-20 0 -31.5 -0.5
t-20.5 -1.5l-1 199h78v-102h29q109 0 166 -46t57 -135q0 -91 -64.5 -139.5t-185.5 -48.5q-51 0 -117 11.5t-143 33.5z" />
    <glyph glyph-name="scedilla" unicode="&#x15f;" horiz-adv-x="958" 
d="M276 313q7 -91 57 -135.5t146 -44.5q93 0 148 46.5t55 123.5q0 101 -213 160q-32 9 -49 14q-167 49 -242.5 124.5t-75.5 191.5q0 133 103.5 221t261.5 88q172 0 270.5 -88t98.5 -240v-8h-179q-3 85 -50 130.5t-132 45.5q-86 0 -139 -41t-53 -106q0 -59 38.5 -92
t173.5 -70l24 -6q186 -51 241 -97q51 -42 77.5 -99t26.5 -126q0 -147 -105.5 -239.5t-277.5 -92.5q-184 0 -285.5 88.5t-105.5 251.5h186zM260 -426v100q78 -18 143.5 -28.5t104.5 -10.5q60 0 89 20.5t29 61.5q0 44 -32 65t-101 21q-20 0 -31.5 -0.5t-20.5 -1.5l-1 199h78
v-102h29q109 0 166 -46t57 -135q0 -91 -64.5 -139.5t-185.5 -48.5q-51 0 -117 11.5t-143 33.5z" />
    <glyph glyph-name="Scaron" unicode="&#x160;" horiz-adv-x="1262" 
d="M303 448q2 -139 86 -217.5t232 -78.5q135 0 217 67t82 176q0 107 -63.5 171.5t-264.5 131.5q-16 6 -48 16q-199 67 -292 144q-66 54 -99.5 133t-33.5 180q0 194 128.5 309t344.5 115q229 0 364 -124.5t146 -346.5h-205q-18 150 -94 225.5t-209 75.5q-125 0 -202 -69.5
t-77 -184.5q0 -58 21 -104.5t61 -75.5q59 -43 200 -88q41 -13 62 -20q264 -90 365.5 -197t101.5 -280q0 -189 -144 -313t-366 -124q-225 0 -363 125.5t-157 345.5zM336 2057h121l174 -230l172 230h123l-197 -351h-196z" />
    <glyph glyph-name="scaron" unicode="&#x161;" horiz-adv-x="958" 
d="M276 313q7 -91 57 -135.5t146 -44.5q93 0 148 46.5t55 123.5q0 101 -213 160q-32 9 -49 14q-167 49 -242.5 124.5t-75.5 191.5q0 133 103.5 221t261.5 88q172 0 270.5 -88t98.5 -240v-8h-179q-3 85 -50 130.5t-132 45.5q-86 0 -139 -41t-53 -106q0 -59 38.5 -92
t173.5 -70l24 -6q186 -51 241 -97q51 -42 77.5 -99t26.5 -126q0 -147 -105.5 -239.5t-277.5 -92.5q-184 0 -285.5 88.5t-105.5 251.5h186zM184 1561h121l174 -230l172 230h123l-197 -351h-196z" />
    <glyph glyph-name="Ydieresis" unicode="&#x178;" horiz-adv-x="1255" 
d="M530 0v633l-532 932h238l364 -676q14 -28 20.5 -43.5t12.5 -31.5q4 15 10.5 30.5t21.5 43.5l363 677h229l-522 -934v-631h-205zM699 1870q0 45 33.5 79t78.5 34q46 0 79.5 -33.5t33.5 -79.5q0 -49 -32 -80.5t-81 -31.5q-48 0 -80 32t-32 80zM334 1870q0 45 34.5 79
t80.5 34t78 -33t32 -80q0 -49 -30.5 -80.5t-79.5 -31.5q-50 0 -82.5 31.5t-32.5 80.5z" />
    <glyph glyph-name="Zcaron" unicode="&#x17d;" horiz-adv-x="1270" 
d="M10 0l781 1249q31 52 54 81t48 50h-801v185h1129l-770 -1225q-39 -60 -64.5 -94t-52.5 -62h844v-184h-1168zM340 2057h121l174 -230l172 230h123l-197 -351h-196z" />
    <glyph glyph-name="zcaron" unicode="&#x17e;" horiz-adv-x="977" 
d="M903 1075l-557 -913h537v-162h-838l553 915h-492v160h797zM194 1561h121l174 -230l172 230h123l-197 -351h-196z" />
    <glyph glyph-name="florin" unicode="&#x192;" horiz-adv-x="1139" 
d="M520 1112q49 222 134 318t231 96q36 0 81.5 -5.5t104.5 -17.5l-37 -174q-42 9 -73 14t-50 5q-83 0 -128 -55t-76 -206l-25 -114h240v-162h-273l-186 -856q-49 -221 -134.5 -317.5t-230.5 -96.5q-32 0 -73.5 5.5t-112.5 19.5l37 172q42 -9 74 -14t51 -5q82 0 126.5 54
t75.5 207l179 831h-211v164h248z" />
    <glyph glyph-name="circumflex" unicode="&#x2c6;" 
d="M217 1210l197 351h196l197 -351h-123l-172 230l-174 -230h-121z" />
    <glyph glyph-name="caron" unicode="&#x2c7;" 
d="M217 1561h121l174 -230l172 230h123l-197 -351h-196z" />
    <glyph glyph-name="breve" unicode="&#x2d8;" 
d="M221 1524l109 -1q5 -72 49 -105.5t133 -33.5t133 33.5t49 105.5l109 1q-11 -145 -81 -212t-210 -67t-210 67t-81 212z" />
    <glyph glyph-name="dotaccent" unicode="&#x2d9;" 
d="M395 1374q0 48 35 83.5t82 35.5q48 0 84.5 -35.5t36.5 -83.5q0 -50 -35 -84.5t-86 -34.5q-50 0 -83.5 34t-33.5 85z" />
    <glyph glyph-name="ring" unicode="&#x2da;" 
d="M377 1444q0 -57 39 -96t96 -39q56 0 95.5 39.5t39.5 95.5q0 55 -40 95t-95 40q-57 0 -96 -39t-39 -96zM260 1446q0 105 73 177.5t179 72.5t179 -72.5t73 -177.5q0 -107 -73 -180.5t-179 -73.5t-179 73.5t-73 180.5z" />
    <glyph glyph-name="ogonek" unicode="&#x2db;" 
d="M621 0q-72 -63 -105 -116.5t-33 -104.5q0 -43 21.5 -60.5t75.5 -17.5h84v-143h-86q-113 0 -169.5 42t-56.5 126q0 66 43.5 130.5t143.5 143.5h82z" />
    <glyph glyph-name="tilde" unicode="&#x2dc;" 
d="M805 1487q-20 -101 -70.5 -154t-126.5 -53q-14 0 -30 2.5t-35 7.5l-97 29q-10 3 -21 4.5t-28 1.5q-31 0 -53.5 -17.5t-36.5 -52.5h-88q18 100 68 153.5t125 53.5q17 0 32 -2t27 -6l99 -29q15 -4 28 -6t25 -2q33 0 56.5 17.5t37.5 52.5h88z" />
    <glyph glyph-name="hungarumlaut" unicode="&#x2dd;" 
d="M569 1210l166 351h176l-245 -351h-97zM311 1210l138 351h178l-219 -351h-97z" />
    <glyph glyph-name="Omega" unicode="&#x3a9;" horiz-adv-x="1569" 
d="M1194 213h305v-213h-602v229q160 94 242 244.5t82 351.5q0 210 -121 341.5t-316 131.5q-197 0 -316.5 -132.5t-119.5 -352.5q0 -191 84 -342t240 -242v-229h-602v213h305q-144 130 -211.5 274t-67.5 322q0 314 190.5 508t497.5 194q303 0 496 -192.5t193 -493.5
q0 -190 -65.5 -333t-213.5 -279z" />
    <glyph glyph-name="pi" unicode="&#x3c0;" horiz-adv-x="1368" 
d="M360 889h-45q-54 0 -83.5 -31.5t-38.5 -99.5h-175q28 187 100 255t242 68h953l-39 -192h-193l-84 -437q-2 -13 -8 -41q-22 -113 -22 -147q0 -58 23 -82t77 -24q18 0 42.5 2.5t59.5 7.5l-34 -168q-29 -8 -61 -12t-75 -4q-139 0 -202.5 48t-63.5 154q0 77 52 344l1 6
l70 353h-268l-174 -889h-226z" />
    <glyph glyph-name="endash" unicode="&#x2013;" 
d="M0 473v129h1024v-129h-1024z" />
    <glyph glyph-name="emdash" unicode="&#x2014;" horiz-adv-x="2048" 
d="M0 473v129h2048v-129h-2048z" />
    <glyph glyph-name="quoteleft" unicode="&#x2018;" horiz-adv-x="569" 
d="M256 1016l-201 82l250 497l137 -53z" />
    <glyph glyph-name="quoteright" unicode="&#x2019;" horiz-adv-x="569" 
d="M244 1595l198 -82l-247 -497l-140 53z" />
    <glyph glyph-name="quotesinglbase" unicode="&#x201a;" horiz-adv-x="569" 
d="M244 248l198 -82l-247 -498l-140 53z" />
    <glyph glyph-name="quotedblleft" unicode="&#x201c;" horiz-adv-x="1006" 
d="M256 1016l-201 82l250 497l137 -53zM690 1016l-198 82l249 497l138 -53z" />
    <glyph glyph-name="quotedblright" unicode="&#x201d;" horiz-adv-x="1006" 
d="M680 1595l199 -82l-248 -497l-139 53zM244 1595l198 -82l-247 -497l-140 53z" />
    <glyph glyph-name="quotedblbase" unicode="&#x201e;" horiz-adv-x="1006" 
d="M680 248l199 -82l-248 -498l-139 53zM244 248l198 -82l-247 -498l-140 53z" />
    <glyph glyph-name="dagger" unicode="&#x2020;" 
d="M473 -113q-10 316 -30 540.5t-46 311.5q27 83 46 172t30 187l-334 -70v213l334 -63l-72 417h220l-72 -417l334 63v-213l-336 70q17 -107 36.5 -197t41.5 -162q-28 -120 -45 -288t-33 -564h-74z" />
    <glyph glyph-name="daggerdbl" unicode="&#x2021;" 
d="M627 752q-23 -49 -42 -132.5t-36 -209.5l334 69v-215l-334 66l72 -418h-220l72 418l-334 -66v215l336 -69q-23 136 -41.5 219t-36.5 125q24 52 43 137.5t33 206.5l-332 -70v213l332 -63l-72 417h220l-72 -417l336 63v-213l-338 70q27 -148 45 -227.5t35 -118.5z" />
    <glyph glyph-name="bullet" unicode="&#x2022;" horiz-adv-x="1208" 
d="M307 762q0 123 87 209t210 86q122 0 208.5 -86.5t86.5 -208.5t-87.5 -209.5t-209.5 -87.5q-123 0 -209 87t-86 210z" />
    <glyph glyph-name="ellipsis" unicode="&#x2026;" horiz-adv-x="2048" 
d="M211 104q0 54 38.5 91.5t92.5 37.5q55 0 93 -37t38 -92q0 -53 -39 -92t-92 -39t-92 39.5t-39 91.5zM893 104q0 54 38.5 91.5t92.5 37.5q55 0 93 -37t38 -92q0 -53 -39 -92t-92 -39t-92 39.5t-39 91.5zM1577 104q0 54 38.5 91.5t92.5 37.5q55 0 93 -37t38 -92
q0 -53 -39 -92t-92 -39t-92 39.5t-39 91.5z" />
    <glyph glyph-name="perthousand" unicode="&#x2030;" horiz-adv-x="2564" 
d="M1858 449q0 127 86 205.5t227 78.5q140 0 220.5 -77.5t80.5 -213.5v-176q0 -128 -84.5 -206t-222.5 -78q-137 0 -222 79t-85 205v183zM2028 389v-67q0 -102 33.5 -150.5t103.5 -48.5q71 0 105 48.5t34 150.5v67q0 100 -34.5 149.5t-104.5 49.5q-69 0 -103 -49.5
t-34 -149.5zM1253 389v-67q0 -101 34.5 -150t105.5 -49q70 0 103.5 48t33.5 151v67q0 101 -34 150t-103 49q-70 0 -105 -50t-35 -149zM1184 1528h153l-725 -1546h-153zM268 1184v-70q0 -101 34 -150t104 -49q71 0 105 49t34 150v70q0 100 -34.5 149t-104.5 49t-104 -49
t-34 -149zM1085 449q0 127 86.5 205.5t227.5 78.5q140 0 220.5 -77.5t80.5 -213.5v-176q0 -128 -84.5 -206t-222.5 -78q-137 0 -222.5 79t-85.5 205v183zM100 1241q0 129 86 208t226 79t220.5 -78.5t80.5 -214.5v-176q0 -128 -85 -206.5t-222 -78.5t-221.5 79t-84.5 206v182
z" />
    <glyph glyph-name="guilsinglleft" unicode="&#x2039;" horiz-adv-x="659" 
d="M555 936l-227 -397l227 -400h-195l-229 400l229 397h195z" />
    <glyph glyph-name="guilsinglright" unicode="&#x203a;" horiz-adv-x="659" 
d="M102 139l230 400l-230 397h197l229 -397l-229 -400h-197z" />
    <glyph glyph-name="franc" unicode="&#x20a3;" horiz-adv-x="1858" 
d="M180 0v1565h813v-185h-610v-489h610v-180h-610v-711h-203zM1292 0v1075h180v-145q49 82 118.5 123t162.5 41q26 0 39.5 -1t25.5 -3v-193q-28 6 -51 9t-43 3q-121 0 -182.5 -77t-61.5 -230v-602h-188z" />
    <glyph glyph-name="trademark" unicode="&#x2122;" horiz-adv-x="1706" 
d="M809 1460h170l141 -360l133 360h170v-542h-114v428l-160 -428h-59l-166 428v-428h-115v542zM225 1460h467v-94h-168v-448h-129v448h-170v94z" />
    <glyph glyph-name="partialdiff" unicode="&#x2202;" horiz-adv-x="1075" 
d="M758 639q17 103 26 186.5t9 147.5q0 120 -29 174.5t-92 54.5q-62 0 -147 -58.5t-122 -58.5t-64.5 26t-27.5 60q0 66 79 115t200 49q176 0 287.5 -159t111.5 -422q0 -338 -150 -558.5t-376 -220.5q-161 0 -266 112t-105 286q0 193 113 322.5t278 129.5q101 0 167.5 -45
t107.5 -141zM705 504q0 116 -41 178.5t-117 62.5q-105 0 -174.5 -131.5t-69.5 -337.5q0 -116 40.5 -177.5t117.5 -61.5q105 0 174.5 132.5t69.5 334.5z" />
    <glyph glyph-name="Delta" unicode="&#x2206;" horiz-adv-x="1395" 
d="M698 1196l-379 -983h756zM569 1473h256l574 -1473h-1403z" />
    <glyph glyph-name="product" unicode="&#x220f;" horiz-adv-x="1579" 
d="M154 1473h1267v-1866h-286v1622h-695v-1622h-286v1866z" />
    <glyph glyph-name="summation" unicode="&#x2211;" horiz-adv-x="1421" 
d="M61 1473h1280v-226h-921l647 -684l-661 -729h974v-227h-1347v160l712 786l-684 719v201z" />
    <glyph glyph-name="minus" unicode="&#x2212;" horiz-adv-x="1706" 
d="M254 696h1198v-170h-1198v170z" />
    <glyph glyph-name="fraction" unicode="&#x2215;" horiz-adv-x="342" 
d="M520 1526h162l-860 -1544h-164z" />
    <glyph glyph-name="periodcentered" unicode="&#x2219;" horiz-adv-x="569" 
d="M154 754q0 53 38.5 92t92.5 39q55 0 93 -38t38 -93q0 -54 -39 -92.5t-92 -38.5t-92 39t-39 92z" />
    <glyph glyph-name="radical" unicode="&#x221a;" horiz-adv-x="1323" 
d="M1128 1675h197v-110h-108l-594 -1606h-82l-316 872l-131 -49l-28 95l305 108l247 -688z" />
    <glyph glyph-name="infinity" unicode="&#x221e;" horiz-adv-x="1706" 
d="M928 559q45 -81 109.5 -122.5t146.5 -41.5q97 0 159 61.5t62 157.5q0 95 -57 158.5t-142 63.5q-78 0 -142 -63.5t-136 -213.5zM780 662q-46 81 -111 123t-145 42q-98 0 -159.5 -62t-61.5 -159q0 -94 56.5 -156.5t140.5 -62.5q80 0 144.5 62.5t135.5 212.5zM862 471
q-71 -135 -148.5 -197.5t-172.5 -62.5q-137 0 -232.5 114.5t-95.5 284.5q0 179 85 289.5t220 110.5q93 0 168.5 -60t157.5 -200q71 139 149.5 200.5t184.5 61.5q127 0 222 -116t95 -284q0 -178 -84.5 -288.5t-220.5 -110.5q-92 0 -166.5 57.5t-161.5 200.5z" />
    <glyph glyph-name="integral" unicode="&#x222b;" horiz-adv-x="1120" 
d="M324 -258q107 1 122 692q2 81 3 123q13 538 113 766.5t312 228.5q87 0 143 -45.5t56 -111.5q0 -61 -34 -95t-95 -34q-45 0 -74.5 22.5t-40.5 65.5q-4 17 -6 45q-3 41 -26 41q-101 0 -119 -615q-5 -161 -8 -249q-10 -280 -30.5 -427t-59.5 -245q-55 -136 -139.5 -205.5
t-194.5 -69.5q-87 0 -142 44t-55 112q0 63 35.5 97t99.5 34q39 0 66 -18t41 -54q6 -15 8.5 -58t24.5 -44z" />
    <glyph glyph-name="approxequal" unicode="&#x2248;" horiz-adv-x="1706" 
d="M1530 592v-186q-107 -73 -200 -106.5t-189 -33.5q-89 0 -279.5 66.5t-298.5 66.5q-84 0 -173.5 -36t-211.5 -121v184q112 75 206.5 110t180.5 35q118 0 309 -67.5t277 -67.5q83 0 172 36.5t207 119.5zM1530 979v-184q-109 -75 -201.5 -108.5t-187.5 -33.5
q-88 0 -278.5 67.5t-299.5 67.5q-82 0 -170 -35t-215 -122v184q109 73 205 109.5t182 36.5q120 0 310 -68t268 -68q92 0 181 35t206 119z" />
    <glyph glyph-name="notequal" unicode="&#x2260;" horiz-adv-x="1706" 
d="M1204 1212l123 -100l-170 -215h295v-162h-403l-197 -250h600v-161h-707l-249 -314l-123 99l170 215h-289v161h393l199 250h-592v162h700z" />
    <glyph glyph-name="lessequal" unicode="&#x2264;" horiz-adv-x="1706" 
d="M260 178h1186v-166h-1186v166zM1446 1223v-176l-889 -287l889 -287v-176l-1186 389v145z" />
    <glyph glyph-name="greaterequal" unicode="&#x2265;" horiz-adv-x="1706" 
d="M260 178h1188v-166h-1188v166zM260 1223l1186 -392v-145l-1186 -389v176l891 287l-891 287v176z" />
    <glyph glyph-name="lozenge" unicode="&#x25ca;" horiz-adv-x="1012" 
d="M506 1409l-385 -817l385 -825l385 825zM506 1653l500 -1061l-500 -1069l-500 1069z" />
    <glyph glyph-name="apple" unicode="&#xf000;" horiz-adv-x="1618" 
d="M836 1216q-1 6 -1.5 14t-0.5 23q0 124 95 229.5t236 131.5q1 -10 1.5 -23t0.5 -39q0 -131 -103.5 -234.5t-203.5 -103.5h-8q-3 0 -7.5 1t-8.5 1zM1505 403q-114 -247 -205 -342.5t-204 -95.5q-50 0 -131.5 33t-122.5 33q-45 0 -131 -33t-127 -33q-64 0 -128.5 44
t-129.5 132q-102 140 -157.5 295.5t-55.5 300.5q0 219 125 356.5t323 137.5q68 0 155 -34t124 -34q34 0 121.5 35t152.5 35q110 0 198 -40t161 -124q-102 -65 -151.5 -145.5t-49.5 -182.5q0 -113 60 -200t173 -138z" />
    <glyph glyph-name="fi" unicode="&#xf001;" horiz-adv-x="1100" 
d="M713 1434q0 53 38.5 92t92.5 39q55 0 93 -38t38 -93q0 -54 -38.5 -91.5t-92.5 -37.5q-53 0 -92 38.5t-39 90.5zM750 0v1075h188v-1075h-188zM567 1565v-179h-8q-98 0 -133 -36t-35 -150v-125h176v-160h-176v-915h-184v915h-164v160h164v117q0 196 83.5 282t276.5 91z" />
    <glyph glyph-name="fl" unicode="&#xf002;" horiz-adv-x="1100" 
d="M750 0v1554h188v-1554h-188zM567 1565v-179h-8q-98 0 -133 -36t-35 -150v-125h176v-160h-176v-915h-184v915h-164v160h164v117q0 196 83.5 282t276.5 91z" />
    </font>
</defs>
</svg>
